999
DXF file: mb3227_40_70_90_M6.dxf
999
Pro/ENGINEER 2010280 by Parametric Technology Corporation
  0
SECTION
  2
HEADER
  9
$ACADVER
  1
AC1021
  9
$DWGCODEPAGE
  3
ANSI_1252
  9
$EXTMAX
 10
600.0
 20
424.2857142857
 30
0.0
  9
$EXTMIN
 10
0.0
 20
0.0
 30
0.0
  9
$LIMMIN
 10
0.0
 20
0.0
  9
$LIMMAX
 10
600.0
 20
424.2857142857
  9
$VIEWCTR
 10
300.0
 20
212.1428571429
  9
$VIEWSIZE
 40
424.2857142857
  9
$CLAYER
  8
0
  9
$LTSCALE
 40
33.0
  9
$CELTYPE
  6
BYLAYER
  9
$DIMSCALE
 40
1.0
  9
$DIMASZ
 40
5.0
  9
$DIMEXO
 40
3.75
  9
$DIMDLI
 40
22.8
  9
$DIMEXE
 40
10.8
  9
$DIMCEN
 40
5.4
  9
$DIMLFAC
 40
1.0
  9
$DIMBLK
  1
_FILLED
  9
$DIMTXT
 40
3.5714285714
  9
$DIMTOL
 70
1
  9
$DIMLIM
 70
0
  9
$DIMTFAC
 40
1.0
  9
$DIMTP
 40
0.005
  9
$DIMTM
 40
0.005
  9
$PDMODE
 70
3
  9
$PDSIZE
 40
0.3125
  9
$HANDSEED
  5
43D
  9
$TILEMODE
 70
1
  9
$MEASUREMENT
 70
1
  9
$INSUNITS
 70
4
  0
ENDSEC
  0
SECTION
  2
CLASSES
  0
CLASS
  1
ACDBDICTIONARYWDFLT
  2
AcDbDictionaryWithDefault
  3
AutoCAD 2000
 90
0
 91
1
280
0
281
0
  0
CLASS
  1
ACDBPLACEHOLDER
  2
AcDbPlaceHolder
  3
AutoCAD 2000
 90
0
 91
1
280
0
281
0
  0
CLASS
  1
LAYOUT
  2
AcDbLayout
  3
AutoCAD 2000
 90
0
 91
0
280
0
281
0
  0
ENDSEC
  0
SECTION
  2
TABLES
  0
TABLE
  2
VPORT
  5
8
100
AcDbSymbolTable
 70
2
  0
VPORT
  5
1F4
100
AcDbSymbolTableRecord
100
AcDbViewportTableRecord
  2
*ACTIVE
 70
0
 10
0.0
 20
0.0
 11
1.0
 21
1.0
 12
300.0
 22
212.1428571429
 13
0.0
 23
0.0
 14
1.0
 24
1.0
 15
0.0
 25
0.0
 16
0.0
 26
0.0
 36
1.0
 17
0.0
 27
0.0
 37
0.0
 40
424.2857142857
 41
1.4141414141
 42
50.0
 43
0.0
 44
0.0
 50
0.0
 51
0.0
 71
0
 72
100
 73
1
 74
1
 75
0
 76
0
 77
0
 78
0
  0
ENDTAB
  0
TABLE
  2
LTYPE
  5
5
100
AcDbSymbolTable
 70
6
  0
LTYPE
  5
14
100
AcDbSymbolTableRecord
100
AcDbLinetypeTableRecord
  2
BYBLOCK
 70
0
  3

 72
65
 73
0
 40
0.0
  0
LTYPE
  5
15
100
AcDbSymbolTableRecord
100
AcDbLinetypeTableRecord
  2
BYLAYER
 70
0
  3

 72
65
 73
0
 40
0.0
  0
LTYPE
  5
16
100
AcDbSymbolTableRecord
100
AcDbLinetypeTableRecord
  2
CONTINUOUS
 70
64
  3
Solid line
 72
65
 73
0
 40
0.0
  0
LTYPE
  5
1F5
100
AcDbSymbolTableRecord
100
AcDbLinetypeTableRecord
  2
CENTER
 70
64
  3
____ _ ____ _ ____ _ ____ _ ____ _ ____ _ ____
 72
65
 73
4
 40
0.6
 49
0.375
 74
0
 49
-0.075
 74
0
 49
0.075
 74
0
 49
-0.075
 74
0
  0
LTYPE
  5
1F6
100
AcDbSymbolTableRecord
100
AcDbLinetypeTableRecord
  2
HIDDEN
 70
64
  3
- - - - - - - - - - - - - - - - - - - -
 72
65
 73
2
 40
0.2
 49
0.1
 74
0
 49
-0.1
 74
0
  0
LTYPE
  5
1F7
100
AcDbSymbolTableRecord
100
AcDbLinetypeTableRecord
  2
PHANTOM
 70
64
  3
_____ _ _ _____ _ _ _____ _ _ _____
 72
65
 73
6
 40
0.8
 49
0.45
 74
0
 49
-0.05
 74
0
 49
0.1
 74
0
 49
-0.05
 74
0
 49
0.1
 74
0
 49
-0.05
 74
0
  0
LTYPE
  5
1F8
100
AcDbSymbolTableRecord
100
AcDbLinetypeTableRecord
  2
DOT
 70
64
  3
. . . . . . . . . . . . . . . . . . . .
 72
65
 73
2
 40
0.2
 49
0.1
 74
0
 49
-0.1
 74
0
  0
LTYPE
  5
1F9
100
AcDbSymbolTableRecord
100
AcDbLinetypeTableRecord
  2
DASHED
 70
64
  3
- - - - - - - - - - - - - - - - - - - -
 72
65
 73
2
 40
0.2
 49
0.1
 74
0
 49
-0.1
 74
0
  0
ENDTAB
  0
TABLE
  2
LAYER
  5
2
100
AcDbSymbolTable
 70
36
  0
LAYER
  5
10
100
AcDbSymbolTableRecord
100
AcDbLayerTableRecord
  2
0
 70
0
 62
7
  6
CONTINUOUS
370
-3
390
F
  0
LAYER
  5
1FA
100
AcDbSymbolTableRecord
100
AcDbLayerTableRecord
  2
DEFAULT_1
 70
0
 62
7
  6
CENTER
370
-3
390
F
  0
LAYER
  5
1FB
100
AcDbSymbolTableRecord
100
AcDbLayerTableRecord
  2
DEFAULT_2
 70
0
 62
8
  6
HIDDEN
370
-3
390
F
  0
LAYER
  5
1FC
100
AcDbSymbolTableRecord
100
AcDbLayerTableRecord
  2
DEFAULT_3
 70
0
 62
7
  6
PHANTOM
370
-3
390
F
  0
LAYER
  5
1FD
100
AcDbSymbolTableRecord
100
AcDbLayerTableRecord
  2
BEZUGSACHSEN
 70
0
 62
7
  6
CONTINUOUS
370
-3
390
F
  0
LAYER
  5
1FE
100
AcDbSymbolTableRecord
100
AcDbLayerTableRecord
  2
BEZUGSEBENEN
 70
0
 62
7
  6
CONTINUOUS
370
-3
390
F
  0
LAYER
  5
1FF
100
AcDbSymbolTableRecord
100
AcDbLayerTableRecord
  2
BLATT1_ANSICHT_ABTRIEB
 70
0
 62
7
  6
CONTINUOUS
370
-3
390
F
  0
LAYER
  5
200
100
AcDbSymbolTableRecord
100
AcDbLayerTableRecord
  2
BLATT1_ANSICHT_ANTRIEB
 70
0
 62
7
  6
CONTINUOUS
370
-3
390
F
  0
LAYER
  5
201
100
AcDbSymbolTableRecord
100
AcDbLayerTableRecord
  2
BLATT1_ANSICHT_MITTE
 70
0
 62
7
  6
CONTINUOUS
370
-3
390
F
  0
LAYER
  5
202
100
AcDbSymbolTableRecord
100
AcDbLayerTableRecord
  2
BLATT2_3D_ANSICHT
 70
0
 62
7
  6
CONTINUOUS
370
-3
390
F
  0
LAYER
  5
203
100
AcDbSymbolTableRecord
100
AcDbLayerTableRecord
  2
BOHRUNGEN
 70
0
 62
7
  6
CONTINUOUS
370
-3
390
F
  0
LAYER
  5
204
100
AcDbSymbolTableRecord
100
AcDbLayerTableRecord
  2
FASEN
 70
0
 62
7
  6
CONTINUOUS
370
-3
390
F
  0
LAYER
  5
205
100
AcDbSymbolTableRecord
100
AcDbLayerTableRecord
  2
GEWINDE
 70
0
 62
7
  6
CONTINUOUS
370
-3
390
F
  0
LAYER
  5
206
100
AcDbSymbolTableRecord
100
AcDbLayerTableRecord
  2
HILFEN
 70
0
 62
7
  6
CONTINUOUS
370
-3
390
F
  0
LAYER
  5
207
100
AcDbSymbolTableRecord
100
AcDbLayerTableRecord
  2
KURVEN
 70
0
 62
7
  6
CONTINUOUS
370
-3
390
F
  0
LAYER
  5
208
100
AcDbSymbolTableRecord
100
AcDbLayerTableRecord
  2
PLAZIERUNG
 70
0
 62
7
  6
CONTINUOUS
370
-3
390
F
  0
LAYER
  5
209
100
AcDbSymbolTableRecord
100
AcDbLayerTableRecord
  2
RUNDUNGEN
 70
0
 62
7
  6
CONTINUOUS
370
-3
390
F
  0
LAYER
  5
20A
100
AcDbSymbolTableRecord
100
AcDbLayerTableRecord
  2
TEIL_STARTBEZUEGE
 70
0
 62
7
  6
CONTINUOUS
370
-3
390
F
  0
LAYER
  5
20B
100
AcDbSymbolTableRecord
100
AcDbLayerTableRecord
  2
ZEICHNUNGSBEMASSUNGEN
 70
0
 62
7
  6
CONTINUOUS
370
-3
390
F
  0
ENDTAB
  0
TABLE
  2
STYLE
  5
3
100
AcDbSymbolTable
 70
1
  0
STYLE
  5
11
100
AcDbSymbolTableRecord
100
AcDbTextStyleTableRecord
  2
STANDARD
 70
0
 40
0.0
 41
0.7
 50
0.0
 71
0
 42
0.2
  3
txt
  4

  0
STYLE
  5
20C
100
AcDbSymbolTableRecord
100
AcDbTextStyleTableRecord
  2
TEXTSTYLE_1
 70
0
 40
0.0
 41
0.8
 50
0.0
 71
0
 42
0.2
  3
gdt
  4

  0
STYLE
  5
20D
100
AcDbSymbolTableRecord
100
AcDbTextStyleTableRecord
  2
TEXTSTYLE_2
 70
0
 40
0.0
 41
0.7
 50
0.0
 71
0
 42
0.2
  3
gdt
  4

  0
STYLE
  5
20E
100
AcDbSymbolTableRecord
100
AcDbTextStyleTableRecord
  2
TEXTSTYLE_3
 70
0
 40
0.0
 41
0.6
 50
0.0
 71
0
 42
0.2
  3
txt
  4

  0
ENDTAB
  0
TABLE
  2
VIEW
  5
6
100
AcDbSymbolTable
 70
0
  0
ENDTAB
  0
TABLE
  2
UCS
  5
7
100
AcDbSymbolTable
 70
0
  0
ENDTAB
  0
TABLE
  2
APPID
  5
9
100
AcDbSymbolTable
 70
1
  0
APPID
  5
20F
100
AcDbSymbolTableRecord
100
AcDbRegAppTableRecord
  2
ACAD
 70
0
  0
ENDTAB
  0
TABLE
  2
BLOCK_RECORD
  5
1
100
AcDbSymbolTable
 70
0
  0
BLOCK_RECORD
  5
210
100
AcDbSymbolTableRecord
100
AcDbBlockTableRecord
  2
*Model_Space
  0
BLOCK_RECORD
  5
211
100
AcDbSymbolTableRecord
100
AcDbBlockTableRecord
  2
*Paper_Space
  0
BLOCK_RECORD
  5
212
100
AcDbSymbolTableRecord
100
AcDbBlockTableRecord
  2
_FILLED
  0
BLOCK_RECORD
  5
213
100
AcDbSymbolTableRecord
100
AcDbBlockTableRecord
  2
_DOTBLANK
  0
BLOCK_RECORD
  5
214
100
AcDbSymbolTableRecord
100
AcDbBlockTableRecord
  2
*D0
  0
BLOCK_RECORD
  5
215
100
AcDbSymbolTableRecord
100
AcDbBlockTableRecord
  2
*D1
  0
BLOCK_RECORD
  5
216
100
AcDbSymbolTableRecord
100
AcDbBlockTableRecord
  2
*D2
  0
BLOCK_RECORD
  5
217
100
AcDbSymbolTableRecord
100
AcDbBlockTableRecord
  2
*D3
  0
BLOCK_RECORD
  5
218
100
AcDbSymbolTableRecord
100
AcDbBlockTableRecord
  2
*D4
  0
BLOCK_RECORD
  5
219
100
AcDbSymbolTableRecord
100
AcDbBlockTableRecord
  2
*D5
  0
BLOCK_RECORD
  5
21A
100
AcDbSymbolTableRecord
100
AcDbBlockTableRecord
  2
*D6
  0
BLOCK_RECORD
  5
21B
100
AcDbSymbolTableRecord
100
AcDbBlockTableRecord
  2
*D7
  0
BLOCK_RECORD
  5
21C
100
AcDbSymbolTableRecord
100
AcDbBlockTableRecord
  2
*D8
  0
BLOCK_RECORD
  5
21D
100
AcDbSymbolTableRecord
100
AcDbBlockTableRecord
  2
*D9
  0
BLOCK_RECORD
  5
21E
100
AcDbSymbolTableRecord
100
AcDbBlockTableRecord
  2
*D10
  0
BLOCK_RECORD
  5
21F
100
AcDbSymbolTableRecord
100
AcDbBlockTableRecord
  2
*D11
  0
BLOCK_RECORD
  5
220
100
AcDbSymbolTableRecord
100
AcDbBlockTableRecord
  2
*D12
  0
BLOCK_RECORD
  5
221
100
AcDbSymbolTableRecord
100
AcDbBlockTableRecord
  2
*D13
  0
BLOCK_RECORD
  5
222
100
AcDbSymbolTableRecord
100
AcDbBlockTableRecord
  2
*D14
  0
BLOCK_RECORD
  5
223
100
AcDbSymbolTableRecord
100
AcDbBlockTableRecord
  2
*D15
  0
BLOCK_RECORD
  5
224
100
AcDbSymbolTableRecord
100
AcDbBlockTableRecord
  2
*D16
  0
BLOCK_RECORD
  5
225
100
AcDbSymbolTableRecord
100
AcDbBlockTableRecord
  2
*D17
  0
BLOCK_RECORD
  5
226
100
AcDbSymbolTableRecord
100
AcDbBlockTableRecord
  2
*D18
  0
BLOCK_RECORD
  5
227
100
AcDbSymbolTableRecord
100
AcDbBlockTableRecord
  2
*D19
  0
BLOCK_RECORD
  5
228
100
AcDbSymbolTableRecord
100
AcDbBlockTableRecord
  2
*D20
  0
BLOCK_RECORD
  5
229
100
AcDbSymbolTableRecord
100
AcDbBlockTableRecord
  2
*D21
  0
BLOCK_RECORD
  5
22A
100
AcDbSymbolTableRecord
100
AcDbBlockTableRecord
  2
*D22
  0
BLOCK_RECORD
  5
22B
100
AcDbSymbolTableRecord
100
AcDbBlockTableRecord
  2
*D23
  0
BLOCK_RECORD
  5
22C
100
AcDbSymbolTableRecord
100
AcDbBlockTableRecord
  2
*D24
  0
BLOCK_RECORD
  5
22D
100
AcDbSymbolTableRecord
100
AcDbBlockTableRecord
  2
*D25
  0
BLOCK_RECORD
  5
22E
100
AcDbSymbolTableRecord
100
AcDbBlockTableRecord
  2
*D26
  0
ENDTAB
  0
TABLE
  2
DIMSTYLE
  5
A
100
AcDbSymbolTable
 70
1
100
AcDbDimStyleTable
 71
0
  0
DIMSTYLE
105
22F
100
AcDbSymbolTableRecord
100
AcDbDimStyleTableRecord
  2
STANDARD
 70
0
  3

  4

 40
1.0
 41
5.0
 42
0.0625
 43
0.38
 44
0.18
 45
0.0
 46
0.0
 47
0.005
 48
0.005
140
3.5714285714
141
0.09
142
0.0
143
25.4
144
1.0
145
0.0
146
1.0
147
0.09
 71
1.0
 72
0.0
 73
0
 74
0
 75
0
 76
0
 77
1
 78
8
170
0
171
2
172
0
173
0
174
0
175
0
176
0
177
0
178
5
270
2
271
3
272
3
273
2
274
2
275
0
280
0
281
0
282
0
283
1
284
8
285
0
286
0
287
3
288
0
340
11
341
212
342
212
343
212
344
212
  0
DIMSTYLE
105
230
100
AcDbSymbolTableRecord
100
AcDbDimStyleTableRecord
  2
DIMSTYLE_1
 70
0
  3

  4

 40
1.0
 41
5.0
 42
0.0625
 43
0.38
 44
0.18
 45
0.0
 46
0.0
 47
0.5
 48
0.5
140
3.5714285714
141
0.09
142
0.0
143
25.4
144
1.0
145
0.0
146
1.0
147
0.09
 71
0.0
 72
0.0
 73
0
 74
0
 75
0
 76
0
 77
1
 78
8
170
0
171
2
172
0
173
0
174
0
175
0
176
0
177
0
178
5
270
2
271
3
272
3
273
2
274
2
275
0
280
0
281
0
282
0
283
1
284
8
285
0
286
0
287
3
288
0
340
11
341
212
342
212
343
212
344
212
  0
DIMSTYLE
105
231
100
AcDbSymbolTableRecord
100
AcDbDimStyleTableRecord
  2
DIMSTYLE_2
 70
0
  3

  4

 40
1.0
 41
5.0
 42
0.0625
 43
0.38
 44
0.18
 45
0.0
 46
0.0
 47
0.3
 48
0.3
140
3.5714285714
141
0.09
142
0.0
143
25.4
144
1.0
145
0.0
146
1.0
147
0.09
 71
0.0
 72
0.0
 73
0
 74
0
 75
0
 76
0
 77
1
 78
8
170
0
171
2
172
0
173
0
174
0
175
0
176
0
177
0
178
5
270
2
271
3
272
3
273
2
274
2
275
0
280
0
281
0
282
0
283
1
284
8
285
0
286
0
287
3
288
0
340
11
341
212
342
212
343
212
344
212
  0
DIMSTYLE
105
232
100
AcDbSymbolTableRecord
100
AcDbDimStyleTableRecord
  2
DIMSTYLE_3
 70
0
  3

  4

 40
1.0
 41
5.0
 42
0.0625
 43
0.38
 44
0.18
 45
0.0
 46
0.0
 47
0.0
 48
0.015
140
3.5714285714
141
0.09
142
0.0
143
25.4
144
1.0
145
0.0
146
1.0
147
0.09
 71
0.0
 72
0.0
 73
0
 74
0
 75
0
 76
0
 77
1
 78
8
170
0
171
2
172
0
173
0
174
0
175
0
176
0
177
0
178
5
270
2
271
3
272
3
273
2
274
2
275
0
280
0
281
0
282
0
283
1
284
8
285
0
286
0
287
3
288
0
340
11
341
212
342
212
343
212
344
212
  0
DIMSTYLE
105
233
100
AcDbSymbolTableRecord
100
AcDbDimStyleTableRecord
  2
DIMSTYLE_4
 70
0
  3

  4

 40
1.0
 41
5.0
 42
0.0625
 43
0.38
 44
0.18
 45
0.0
 46
0.0
 47
0.2
 48
0.2
140
3.5714285714
141
0.09
142
0.0
143
25.4
144
1.0
145
0.0
146
1.0
147
0.09
 71
0.0
 72
0.0
 73
0
 74
0
 75
0
 76
0
 77
1
 78
8
170
0
171
2
172
0
173
0
174
0
175
0
176
0
177
0
178
5
270
2
271
3
272
3
273
2
274
2
275
0
280
0
281
0
282
0
283
1
284
8
285
0
286
0
287
3
288
0
340
11
341
212
342
212
343
212
344
212
  0
DIMSTYLE
105
234
100
AcDbSymbolTableRecord
100
AcDbDimStyleTableRecord
  2
DIMSTYLE_5
 70
0
  3

  4

 40
1.0
 41
5.0
 42
0.0625
 43
0.38
 44
0.18
 45
0.0
 46
0.0
 47
0.1
 48
0.1
140
3.5714285714
141
0.09
142
0.0
143
25.4
144
1.0
145
0.0
146
1.0
147
0.09
 71
0.0
 72
0.0
 73
0
 74
0
 75
0
 76
0
 77
1
 78
8
170
0
171
2
172
0
173
0
174
0
175
0
176
0
177
0
178
5
270
2
271
3
272
3
273
2
274
2
275
0
280
0
281
0
282
0
283
1
284
8
285
0
286
0
287
3
288
0
340
11
341
212
342
212
343
212
344
212
  0
DIMSTYLE
105
235
100
AcDbSymbolTableRecord
100
AcDbDimStyleTableRecord
  2
DIMSTYLE_6
 70
0
  3

  4

 40
1.0
 41
5.0
 42
0.0625
 43
0.38
 44
0.18
 45
0.0
 46
0.0
 47
0.3
 48
0.3
140
3.5714285714
141
0.09
142
0.0
143
25.4
144
1.0
145
0.0
146
1.0
147
0.09
 71
0.0
 72
0.0
 73
0
 74
0
 75
0
 76
0
 77
1
 78
8
170
0
171
2
172
0
173
0
174
0
175
0
176
0
177
0
178
5
270
2
271
3
272
3
273
2
274
2
275
0
280
0
281
0
282
0
283
1
284
8
285
0
286
0
287
3
288
0
340
11
341
212
342
212
343
212
344
212
  0
DIMSTYLE
105
236
100
AcDbSymbolTableRecord
100
AcDbDimStyleTableRecord
  2
DIMSTYLE_7
 70
0
  3

  4

 40
1.0
 41
5.0
 42
0.0625
 43
0.38
 44
0.18
 45
0.0
 46
0.0
 47
0.05
 48
-0.02
140
3.5714285714
141
0.09
142
0.0
143
25.4
144
1.0
145
0.0
146
0.6
147
0.09
 71
1.0
 72
0.0
 73
0
 74
0
 75
0
 76
0
 77
1
 78
8
170
0
171
2
172
0
173
0
174
0
175
0
176
0
177
0
178
5
270
2
271
3
272
3
273
2
274
2
275
0
280
0
281
0
282
0
283
1
284
8
285
0
286
0
287
3
288
0
340
11
341
212
342
212
343
212
344
212
  0
DIMSTYLE
105
237
100
AcDbSymbolTableRecord
100
AcDbDimStyleTableRecord
  2
DIMSTYLE_8
 70
0
  3

  4

 40
1.0
 41
5.0
 42
0.0625
 43
0.38
 44
0.18
 45
0.0
 46
0.0
 47
0.1
 48
0.1
140
3.5714285714
141
0.09
142
0.0
143
25.4
144
1.0
145
0.0
146
1.0
147
0.09
 71
0.0
 72
0.0
 73
0
 74
0
 75
0
 76
0
 77
1
 78
8
170
0
171
2
172
0
173
0
174
0
175
0
176
0
177
0
178
5
270
2
271
3
272
3
273
2
274
2
275
0
280
0
281
0
282
0
283
1
284
8
285
0
286
0
287
3
288
0
340
11
341
212
342
212
343
212
344
212
  0
ENDTAB
  0
ENDSEC
  0
SECTION
  2
BLOCKS
  0
BLOCK
  5
20
100
AcDbEntity
  8
0
100
AcDbBlockBegin
  2
*Model_Space
 70
0
 10
0.0
 20
0.0
 30
0.0
  3
*Model_Space
  1

  0
ENDBLK
  5
21
100
AcDbEntity
  8
0
100
AcDbBlockEnd
  0
BLOCK
  5
1C
100
AcDbEntity
  8
0
100
AcDbBlockBegin
  2
*Paper_Space
 70
0
 10
0.0
 20
0.0
 30
0.0
  3
*Paper_Space
  1

  0
ENDBLK
  5
1D
100
AcDbEntity
  8
0
100
AcDbBlockEnd
  0
BLOCK
  5
238
100
AcDbEntity
  8
0
100
AcDbBlockBegin
  2
_FILLED
 70
64
 10
0.0
 20
0.0
  3
_FILLED
  1

  0
SOLID
  5
239
100
AcDbEntity
  8
0
  6
BYBLOCK
 62
0
100
AcDbTrace
 10
0.0
 20
0.0
 11
-1.0
 21
0.125
 12
-1.0
 22
-0.125
 13
-1.0
 23
-0.125
  0
ENDBLK
  5
23A
100
AcDbEntity
  8
0
  6
BYBLOCK
 62
0
100
AcDbBlockEnd
  0
BLOCK
  5
23B
100
AcDbEntity
  8
0
100
AcDbBlockBegin
  2
_DOTBLANK
 70
64
 10
0.0
 20
0.0
  3
_DOTBLANK
  1

  0
CIRCLE
  5
23C
100
AcDbEntity
  8
0
  6
BYBLOCK
 62
0
100
AcDbCircle
 10
0.0
 20
0.0
 40
0.125
  0
LINE
  5
23D
100
AcDbEntity
  8
0
  6
BYBLOCK
 62
0
100
AcDbLine
 10
-1.0
 20
0.0
 11
0.0
 21
0.0
  0
ENDBLK
  5
23E
100
AcDbEntity
  8
0
  6
BYBLOCK
 62
0
100
AcDbBlockEnd
  0
BLOCK
  5
23F
100
AcDbEntity
  8
ZEICHNUNGSBEMASSUNGEN
100
AcDbBlockBegin
 62
2
  6
CONTINUOUS
  2
*D0
 70
65
 10
0.0
 20
0.0
  3
*D0
  1

  0
MTEXT
  5
240
100
AcDbEntity
  8
ZEICHNUNGSBEMASSUNGEN
100
AcDbMText
 62
5
  6
CONTINUOUS
  7
STANDARD
 71
2
 72
1
 10
298.3691037284
 20
374.2533829294
 30
0.0
 11
1.0
 21
0.0
 31
0.0
 44
0.9
  1
128
 40
3.5714285714
 41
7.6530612245
  0
LINE
  5
241
100
AcDbEntity
  8
ZEICHNUNGSBEMASSUNGEN
100
AcDbLine
 62
2
  6
CONTINUOUS
 10
234.3691037284
 20
311.2176686437
 11
234.3691037284
 21
371.931954358
  0
LINE
  5
242
100
AcDbEntity
  8
ZEICHNUNGSBEMASSUNGEN
100
AcDbLine
 62
2
  6
CONTINUOUS
 10
362.3691037284
 20
279.2176686437
 11
362.3691037284
 21
371.931954358
  0
LINE
  5
243
100
AcDbEntity
  8
ZEICHNUNGSBEMASSUNGEN
100
AcDbLine
 62
2
  6
CONTINUOUS
 10
234.3691037284
 20
369.7890972151
 11
298.3691037284
 21
369.7890972151
  0
LINE
  5
244
100
AcDbEntity
  8
ZEICHNUNGSBEMASSUNGEN
100
AcDbLine
 62
2
  6
CONTINUOUS
 10
362.3691037284
 20
369.7890972151
 11
298.3691037284
 21
369.7890972151
  0
INSERT
  5
245
100
AcDbEntity
  8
ZEICHNUNGSBEMASSUNGEN
100
AcDbBlockReference
 62
2
  6
CONTINUOUS
  2
_FILLED
 10
234.3691037284
 20
369.7890972151
 41
5.0
 42
5.0
 43
5.0
 50
180.0
  0
INSERT
  5
246
100
AcDbEntity
  8
ZEICHNUNGSBEMASSUNGEN
100
AcDbBlockReference
 62
2
  6
CONTINUOUS
  2
_FILLED
 10
362.3691037284
 20
369.7890972151
 41
5.0
 42
5.0
 43
5.0
  0
ENDBLK
  5
247
100
AcDbEntity
  8
0
  6
BYBLOCK
 62
0
100
AcDbBlockEnd
  0
BLOCK
  5
248
100
AcDbEntity
  8
ZEICHNUNGSBEMASSUNGEN
100
AcDbBlockBegin
 62
2
  6
CONTINUOUS
  2
*D1
 70
65
 10
0.0
 20
0.0
  3
*D1
  1

  0
MTEXT
  5
249
100
AcDbEntity
  8
ZEICHNUNGSBEMASSUNGEN
100
AcDbMText
 62
5
  6
CONTINUOUS
  7
STANDARD
 71
2
 72
1
 10
254.3691037284
 20
207.1105257865
 30
0.0
 11
1.0
 21
0.0
 31
0.0
 44
0.9
  1
40
 40
3.5714285714
 41
5.612244898
  0
LINE
  5
24A
100
AcDbEntity
  8
ZEICHNUNGSBEMASSUNGEN
100
AcDbLine
 62
2
  6
CONTINUOUS
 10
234.3691037284
 20
229.7890972151
 11
234.3691037284
 21
200.5033829294
  0
LINE
  5
24B
100
AcDbEntity
  8
ZEICHNUNGSBEMASSUNGEN
100
AcDbLine
 62
2
  6
CONTINUOUS
 10
274.3691037284
 20
260.2890972151
 11
274.3691037284
 21
200.5033829294
  0
LINE
  5
24C
100
AcDbEntity
  8
ZEICHNUNGSBEMASSUNGEN
100
AcDbLine
 62
2
  6
CONTINUOUS
 10
234.3691037284
 20
202.6462400723
 11
254.3691037284
 21
202.6462400723
  0
LINE
  5
24D
100
AcDbEntity
  8
ZEICHNUNGSBEMASSUNGEN
100
AcDbLine
 62
2
  6
CONTINUOUS
 10
274.3691037284
 20
202.6462400723
 11
254.3691037284
 21
202.6462400723
  0
INSERT
  5
24E
100
AcDbEntity
  8
ZEICHNUNGSBEMASSUNGEN
100
AcDbBlockReference
 62
2
  6
CONTINUOUS
  2
_FILLED
 10
234.3691037284
 20
202.6462400723
 41
5.0
 42
5.0
 43
5.0
 50
180.0
  0
INSERT
  5
24F
100
AcDbEntity
  8
ZEICHNUNGSBEMASSUNGEN
100
AcDbBlockReference
 62
2
  6
CONTINUOUS
  2
_FILLED
 10
274.3691037284
 20
202.6462400723
 41
5.0
 42
5.0
 43
5.0
  0
ENDBLK
  5
250
100
AcDbEntity
  8
0
  6
BYBLOCK
 62
0
100
AcDbBlockEnd
  0
BLOCK
  5
251
100
AcDbEntity
  8
ZEICHNUNGSBEMASSUNGEN
100
AcDbBlockBegin
 62
2
  6
CONTINUOUS
  2
*D2
 70
65
 10
0.0
 20
0.0
  3
*D2
  1

  0
MTEXT
  5
252
100
AcDbEntity
  8
ZEICHNUNGSBEMASSUNGEN
100
AcDbMText
 62
5
  6
CONTINUOUS
  7
STANDARD
 71
2
 72
1
 10
254.8691037284
 20
359.9676686437
 30
0.0
 11
1.0
 21
0.0
 31
0.0
 44
0.9
  1
41
 40
3.5714285714
 41
4.8469387755
  0
LINE
  5
253
100
AcDbEntity
  8
ZEICHNUNGSBEMASSUNGEN
100
AcDbLine
 62
2
  6
CONTINUOUS
 10
234.3691037284
 20
319.7890972151
 11
234.3691037284
 21
357.6462400723
  0
LINE
  5
254
100
AcDbEntity
  8
ZEICHNUNGSBEMASSUNGEN
100
AcDbLine
 62
2
  6
CONTINUOUS
 10
275.3691037284
 20
301.0018307679
 11
275.3691037284
 21
357.6462400723
  0
LINE
  5
255
100
AcDbEntity
  8
ZEICHNUNGSBEMASSUNGEN
100
AcDbLine
 62
2
  6
CONTINUOUS
 10
234.3691037284
 20
355.5033829294
 11
254.8691037284
 21
355.5033829294
  0
LINE
  5
256
100
AcDbEntity
  8
ZEICHNUNGSBEMASSUNGEN
100
AcDbLine
 62
2
  6
CONTINUOUS
 10
275.3691037284
 20
355.5033829294
 11
254.8691037284
 21
355.5033829294
  0
INSERT
  5
257
100
AcDbEntity
  8
ZEICHNUNGSBEMASSUNGEN
100
AcDbBlockReference
 62
2
  6
CONTINUOUS
  2
_FILLED
 10
234.3691037284
 20
355.5033829294
 41
5.0
 42
5.0
 43
5.0
 50
180.0
  0
INSERT
  5
258
100
AcDbEntity
  8
ZEICHNUNGSBEMASSUNGEN
100
AcDbBlockReference
 62
2
  6
CONTINUOUS
  2
_FILLED
 10
275.3691037284
 20
355.5033829294
 41
5.0
 42
5.0
 43
5.0
  0
ENDBLK
  5
259
100
AcDbEntity
  8
0
  6
BYBLOCK
 62
0
100
AcDbBlockEnd
  0
BLOCK
  5
25A
100
AcDbEntity
  8
ZEICHNUNGSBEMASSUNGEN
100
AcDbBlockBegin
 62
2
  6
CONTINUOUS
  2
*D3
 70
65
 10
0.0
 20
0.0
  3
*D3
  1

  0
MTEXT
  5
25B
100
AcDbEntity
  8
ZEICHNUNGSBEMASSUNGEN
100
AcDbMText
 62
5
  6
CONTINUOUS
  7
STANDARD
 71
2
 72
1
 10
344.3691037284
 20
359.9676686437
 30
0.0
 11
1.0
 21
0.0
 31
0.0
 44
0.9
  1
36
 40
3.5714285714
 41
5.3571428571
  0
LINE
  5
25C
100
AcDbEntity
  8
ZEICHNUNGSBEMASSUNGEN
100
AcDbLine
 62
2
  6
CONTINUOUS
 10
326.3691037284
 20
306.2176686437
 11
326.3691037284
 21
357.6462400723
  0
LINE
  5
25D
100
AcDbEntity
  8
ZEICHNUNGSBEMASSUNGEN
100
AcDbLine
 62
2
  6
CONTINUOUS
 10
362.3691037284
 20
280.1462400723
 11
362.3691037284
 21
357.6462400723
  0
LINE
  5
25E
100
AcDbEntity
  8
ZEICHNUNGSBEMASSUNGEN
100
AcDbLine
 62
2
  6
CONTINUOUS
 10
326.3691037284
 20
355.5033829294
 11
344.3691037284
 21
355.5033829294
  0
LINE
  5
25F
100
AcDbEntity
  8
ZEICHNUNGSBEMASSUNGEN
100
AcDbLine
 62
2
  6
CONTINUOUS
 10
362.3691037284
 20
355.5033829294
 11
344.3691037284
 21
355.5033829294
  0
INSERT
  5
260
100
AcDbEntity
  8
ZEICHNUNGSBEMASSUNGEN
100
AcDbBlockReference
 62
2
  6
CONTINUOUS
  2
_FILLED
 10
326.3691037284
 20
355.5033829294
 41
5.0
 42
5.0
 43
5.0
 50
180.0
  0
INSERT
  5
261
100
AcDbEntity
  8
ZEICHNUNGSBEMASSUNGEN
100
AcDbBlockReference
 62
2
  6
CONTINUOUS
  2
_FILLED
 10
362.3691037284
 20
355.5033829294
 41
5.0
 42
5.0
 43
5.0
  0
ENDBLK
  5
262
100
AcDbEntity
  8
0
  6
BYBLOCK
 62
0
100
AcDbBlockEnd
  0
BLOCK
  5
263
100
AcDbEntity
  8
0
100
AcDbBlockBegin
 62
2
  6
CONTINUOUS
  2
*D4
 70
65
 10
0.0
 20
0.0
  3
*D4
  1

  0
MTEXT
  5
264
100
AcDbEntity
  8
0
100
AcDbMText
 62
5
  6
CONTINUOUS
  7
TEXTSTYLE_2
 71
3
 72
1
 10
375.047675157
 20
229.0748115008
 30
0.0
 11
0.0
 21
1.0
 31
0.0
 44
0.9
  1
{\Fgdt;n}\Ftxt;16
 40
3.5714285714
 41
9.6088435374
  0
LINE
  5
265
100
AcDbEntity
  8
0
100
AcDbLine
 62
2
  6
CONTINUOUS
 10
363.0833894427
 20
278.5033829294
 11
381.6548180141
 21
278.5033829294
  0
LINE
  5
266
100
AcDbEntity
  8
0
100
AcDbLine
 62
2
  6
CONTINUOUS
 10
363.0833894427
 20
262.5033829294
 11
381.6548180141
 21
262.5033829294
  0
LINE
  5
267
100
AcDbEntity
  8
0
100
AcDbLine
 62
2
  6
CONTINUOUS
 10
379.5119608713
 20
278.5033829294
 11
379.5119608713
 21
270.5033829294
  0
LINE
  5
268
100
AcDbEntity
  8
0
100
AcDbLine
 62
2
  6
CONTINUOUS
 10
379.5119608713
 20
262.5033829294
 11
379.5119608713
 21
270.5033829294
  0
LINE
  5
269
100
AcDbEntity
  8
0
100
AcDbLine
 62
2
  6
CONTINUOUS
 10
379.5119608713
 20
270.5033829294
 11
379.5119608713
 21
219.4659679634
  0
INSERT
  5
26A
100
AcDbEntity
  8
0
100
AcDbBlockReference
 62
2
  6
CONTINUOUS
  2
_FILLED
 10
379.5119608713
 20
278.5033829294
 41
5.0
 42
5.0
 43
5.0
 50
90.0
  0
INSERT
  5
26B
100
AcDbEntity
  8
0
100
AcDbBlockReference
 62
2
  6
CONTINUOUS
  2
_FILLED
 10
379.5119608713
 20
262.5033829294
 41
5.0
 42
5.0
 43
5.0
 50
270.0
  0
ENDBLK
  5
26C
100
AcDbEntity
  8
0
  6
BYBLOCK
 62
0
100
AcDbBlockEnd
  0
BLOCK
  5
26D
100
AcDbEntity
  8
0
100
AcDbBlockBegin
 62
2
  6
CONTINUOUS
  2
*D5
 70
65
 10
0.0
 20
0.0
  3
*D5
  1

  0
MTEXT
  5
26E
100
AcDbEntity
  8
0
100
AcDbMText
 62
5
  6
CONTINUOUS
  7
STANDARD
 71
2
 72
1
 10
348.3691037284
 20
339.9676686437
 30
0.0
 11
1.0
 21
0.0
 31
0.0
 44
0.9
  1
28
 40
3.5714285714
 41
5.612244898
  0
LINE
  5
26F
100
AcDbEntity
  8
0
100
AcDbLine
 62
2
  6
CONTINUOUS
 10
362.3691037284
 20
279.2176686437
 11
362.3691037284
 21
337.6462400723
  0
LINE
  5
270
100
AcDbEntity
  8
0
100
AcDbLine
 62
2
  6
CONTINUOUS
 10
334.3691037284
 20
286.2176686437
 11
334.3691037284
 21
337.6462400723
  0
LINE
  5
271
100
AcDbEntity
  8
0
100
AcDbLine
 62
2
  6
CONTINUOUS
 10
362.3691037284
 20
335.5033829294
 11
348.3691037284
 21
335.5033829294
  0
LINE
  5
272
100
AcDbEntity
  8
0
100
AcDbLine
 62
2
  6
CONTINUOUS
 10
334.3691037284
 20
335.5033829294
 11
348.3691037284
 21
335.5033829294
  0
INSERT
  5
273
100
AcDbEntity
  8
0
100
AcDbBlockReference
 62
2
  6
CONTINUOUS
  2
_FILLED
 10
362.3691037284
 20
335.5033829294
 41
5.0
 42
5.0
 43
5.0
  0
INSERT
  5
274
100
AcDbEntity
  8
0
100
AcDbBlockReference
 62
2
  6
CONTINUOUS
  2
_FILLED
 10
334.3691037284
 20
335.5033829294
 41
5.0
 42
5.0
 43
5.0
 50
180.0
  0
ENDBLK
  5
275
100
AcDbEntity
  8
0
  6
BYBLOCK
 62
0
100
AcDbBlockEnd
  0
BLOCK
  5
276
100
AcDbEntity
  8
0
100
AcDbBlockBegin
 62
2
  6
CONTINUOUS
  2
*D6
 70
65
 10
0.0
 20
0.0
  3
*D6
  1

  0
MTEXT
  5
277
100
AcDbEntity
  8
0
100
AcDbMText
 62
5
  6
CONTINUOUS
  7
TEXTSTYLE_2
 71
2
 72
1
 10
387.9048180141
 20
270.5033829294
 30
0.0
 11
0.0
 21
1.0
 31
0.0
 44
0.9
  1
{\Fgdt;n}\Ftxt;30
 40
3.5714285714
 41
10.119047619
  0
LINE
  5
278
100
AcDbEntity
  8
0
100
AcDbLine
 62
2
  6
CONTINUOUS
 10
335.0833894427
 20
285.5033829294
 11
394.5119608713
 21
285.5033829294
  0
LINE
  5
279
100
AcDbEntity
  8
0
100
AcDbLine
 62
2
  6
CONTINUOUS
 10
335.0833894427
 20
255.5033829294
 11
394.5119608713
 21
255.5033829294
  0
LINE
  5
27A
100
AcDbEntity
  8
0
100
AcDbLine
 62
2
  6
CONTINUOUS
 10
392.3691037284
 20
285.5033829294
 11
392.3691037284
 21
270.5033829294
  0
LINE
  5
27B
100
AcDbEntity
  8
0
100
AcDbLine
 62
2
  6
CONTINUOUS
 10
392.3691037284
 20
255.5033829294
 11
392.3691037284
 21
270.5033829294
  0
INSERT
  5
27C
100
AcDbEntity
  8
0
100
AcDbBlockReference
 62
2
  6
CONTINUOUS
  2
_FILLED
 10
392.3691037284
 20
285.5033829294
 41
5.0
 42
5.0
 43
5.0
 50
90.0
  0
INSERT
  5
27D
100
AcDbEntity
  8
0
100
AcDbBlockReference
 62
2
  6
CONTINUOUS
  2
_FILLED
 10
392.3691037284
 20
255.5033829294
 41
5.0
 42
5.0
 43
5.0
 50
270.0
  0
ENDBLK
  5
27E
100
AcDbEntity
  8
0
  6
BYBLOCK
 62
0
100
AcDbBlockEnd
  0
BLOCK
  5
27F
100
AcDbEntity
  8
0
100
AcDbBlockBegin
 62
2
  6
CONTINUOUS
  2
*D7
 70
65
 10
0.0
 20
0.0
  3
*D7
  1

  0
MTEXT
  5
280
100
AcDbEntity
  8
0
100
AcDbMText
 62
5
  6
CONTINUOUS
  7
STANDARD
 71
2
 72
1
 10
32.3650020577
 20
271.5033829294
 30
0.0
 11
0.0
 21
1.0
 31
0.0
 44
0.9
  1
18
 40
3.5714285714
 41
4.8469387755
  0
LINE
  5
281
100
AcDbEntity
  8
0
100
AcDbLine
 62
2
  6
CONTINUOUS
 10
92.9007163434
 20
280.5033829294
 11
34.6864306291
 21
280.5033829294
  0
LINE
  5
282
100
AcDbEntity
  8
0
100
AcDbLine
 62
2
  6
CONTINUOUS
 10
95.4857982515
 20
262.5033829294
 11
34.6864306291
 21
262.5033829294
  0
LINE
  5
283
100
AcDbEntity
  8
0
100
AcDbLine
 62
2
  6
CONTINUOUS
 10
36.8292877719
 20
280.5033829294
 11
36.8292877719
 21
271.5033829294
  0
LINE
  5
284
100
AcDbEntity
  8
0
100
AcDbLine
 62
2
  6
CONTINUOUS
 10
36.8292877719
 20
262.5033829294
 11
36.8292877719
 21
271.5033829294
  0
INSERT
  5
285
100
AcDbEntity
  8
0
100
AcDbBlockReference
 62
2
  6
CONTINUOUS
  2
_FILLED
 10
36.8292877719
 20
280.5033829294
 41
5.0
 42
5.0
 43
5.0
 50
90.0
  0
INSERT
  5
286
100
AcDbEntity
  8
0
100
AcDbBlockReference
 62
2
  6
CONTINUOUS
  2
_FILLED
 10
36.8292877719
 20
262.5033829294
 41
5.0
 42
5.0
 43
5.0
 50
270.0
  0
ENDBLK
  5
287
100
AcDbEntity
  8
0
  6
BYBLOCK
 62
0
100
AcDbBlockEnd
  0
BLOCK
  5
288
100
AcDbEntity
  8
0
100
AcDbBlockBegin
 62
2
  6
CONTINUOUS
  2
*D8
 70
65
 10
0.0
 20
0.0
  3
*D8
  1

  0
MTEXT
  5
289
100
AcDbEntity
  8
0
100
AcDbMText
 62
5
  6
CONTINUOUS
  7
STANDARD
 71
2
 72
1
 10
347.8691037284
 20
322.8248115008
 30
0.0
 11
1.0
 21
0.0
 31
0.0
 44
0.9
  1
25
 40
3.5714285714
 41
5.3571428571
  0
LINE
  5
28A
100
AcDbEntity
  8
0
100
AcDbLine
 62
2
  6
CONTINUOUS
 10
335.3691037284
 20
281.2176686437
 11
335.3691037284
 21
320.5033829294
  0
LINE
  5
28B
100
AcDbEntity
  8
0
100
AcDbLine
 62
2
  6
CONTINUOUS
 10
360.3691037284
 20
281.2176686437
 11
360.3691037284
 21
320.5033829294
  0
LINE
  5
28C
100
AcDbEntity
  8
0
100
AcDbLine
 62
2
  6
CONTINUOUS
 10
335.3691037284
 20
318.3605257865
 11
347.8691037284
 21
318.3605257865
  0
LINE
  5
28D
100
AcDbEntity
  8
0
100
AcDbLine
 62
2
  6
CONTINUOUS
 10
360.3691037284
 20
318.3605257865
 11
347.8691037284
 21
318.3605257865
  0
INSERT
  5
28E
100
AcDbEntity
  8
0
100
AcDbBlockReference
 62
2
  6
CONTINUOUS
  2
_FILLED
 10
335.3691037284
 20
318.3605257865
 41
5.0
 42
5.0
 43
5.0
 50
180.0
  0
INSERT
  5
28F
100
AcDbEntity
  8
0
100
AcDbBlockReference
 62
2
  6
CONTINUOUS
  2
_FILLED
 10
360.3691037284
 20
318.3605257865
 41
5.0
 42
5.0
 43
5.0
  0
ENDBLK
  5
290
100
AcDbEntity
  8
0
  6
BYBLOCK
 62
0
100
AcDbBlockEnd
  0
BLOCK
  5
291
100
AcDbEntity
  8
0
100
AcDbBlockBegin
 62
2
  6
CONTINUOUS
  2
*D9
 70
65
 10
0.0
 20
0.0
  3
*D9
  1

  0
MTEXT
  5
292
100
AcDbEntity
  8
0
100
AcDbMText
 62
5
  6
CONTINUOUS
  7
STANDARD
 71
1
 72
1
 10
379.5119608713
 20
331.3962400723
 30
0.0
 11
1.0
 21
0.0
 31
0.0
 44
0.9
  1
2
 40
3.5714285714
 41
2.806122449
  0
LINE
  5
293
100
AcDbEntity
  8
0
100
AcDbLine
 62
2
  6
CONTINUOUS
 10
362.3691037284
 20
279.2176686437
 11
362.3691037284
 21
329.0748115008
  0
LINE
  5
294
100
AcDbEntity
  8
0
100
AcDbLine
 62
2
  6
CONTINUOUS
 10
360.3691037284
 20
281.2176686437
 11
360.3691037284
 21
329.0748115008
  0
LINE
  5
295
100
AcDbEntity
  8
0
100
AcDbLine
 62
2
  6
CONTINUOUS
 10
362.3691037284
 20
326.931954358
 11
382.3180833203
 21
326.931954358
  0
LINE
  5
296
100
AcDbEntity
  8
0
100
AcDbLine
 62
2
  6
CONTINUOUS
 10
382.3180833203
 20
326.931954358
 11
361.3691037284
 21
326.931954358
  0
LINE
  5
297
100
AcDbEntity
  8
0
100
AcDbLine
 62
2
  6
CONTINUOUS
 10
360.3691037284
 20
326.931954358
 11
351.797675157
 21
326.931954358
  0
LINE
  5
298
100
AcDbEntity
  8
0
100
AcDbLine
 62
2
  6
CONTINUOUS
 10
351.797675157
 20
326.931954358
 11
361.3691037284
 21
326.931954358
  0
INSERT
  5
299
100
AcDbEntity
  8
0
100
AcDbBlockReference
 62
2
  6
CONTINUOUS
  2
_FILLED
 10
362.3691037284
 20
326.931954358
 41
5.0
 42
5.0
 43
5.0
 50
180.0
  0
INSERT
  5
29A
100
AcDbEntity
  8
0
100
AcDbBlockReference
 62
2
  6
CONTINUOUS
  2
_FILLED
 10
360.3691037284
 20
326.931954358
 41
5.0
 42
5.0
 43
5.0
  0
ENDBLK
  5
29B
100
AcDbEntity
  8
0
  6
BYBLOCK
 62
0
100
AcDbBlockEnd
  0
BLOCK
  5
29C
100
AcDbEntity
  8
0
100
AcDbBlockBegin
 62
2
  6
CONTINUOUS
  2
*D10
 70
65
 10
0.0
 20
0.0
  3
*D10
  1

  0
MTEXT
  5
29D
100
AcDbEntity
  8
0
100
AcDbMText
 62
5
  6
CONTINUOUS
  7
STANDARD
 71
2
 72
1
 10
96.1150020577
 20
331.3962400723
 30
0.0
 11
1.0
 21
0.0
 31
0.0
 44
0.9
  1
5
 40
3.5714285714
 41
2.5510204082
  0
LINE
  5
29E
100
AcDbEntity
  8
0
100
AcDbLine
 62
2
  6
CONTINUOUS
 10
98.6150020577
 20
281.2176686437
 11
98.6150020577
 21
329.0748115008
  0
LINE
  5
29F
100
AcDbEntity
  8
0
100
AcDbLine
 62
2
  6
CONTINUOUS
 10
93.6150020577
 20
281.2176686437
 11
93.6150020577
 21
329.0748115008
  0
LINE
  5
2A0
100
AcDbEntity
  8
0
100
AcDbLine
 62
2
  6
CONTINUOUS
 10
98.6150020577
 20
326.931954358
 11
107.1864306291
 21
326.931954358
  0
LINE
  5
2A1
100
AcDbEntity
  8
0
100
AcDbLine
 62
2
  6
CONTINUOUS
 10
107.1864306291
 20
326.931954358
 11
96.1150020577
 21
326.931954358
  0
LINE
  5
2A2
100
AcDbEntity
  8
0
100
AcDbLine
 62
2
  6
CONTINUOUS
 10
93.6150020577
 20
326.931954358
 11
85.0435734862
 21
326.931954358
  0
LINE
  5
2A3
100
AcDbEntity
  8
0
100
AcDbLine
 62
2
  6
CONTINUOUS
 10
85.0435734862
 20
326.931954358
 11
96.1150020577
 21
326.931954358
  0
INSERT
  5
2A4
100
AcDbEntity
  8
0
100
AcDbBlockReference
 62
2
  6
CONTINUOUS
  2
_FILLED
 10
98.6150020577
 20
326.931954358
 41
5.0
 42
5.0
 43
5.0
 50
180.0
  0
INSERT
  5
2A5
100
AcDbEntity
  8
0
100
AcDbBlockReference
 62
2
  6
CONTINUOUS
  2
_FILLED
 10
93.6150020577
 20
326.931954358
 41
5.0
 42
5.0
 43
5.0
  0
ENDBLK
  5
2A6
100
AcDbEntity
  8
0
  6
BYBLOCK
 62
0
100
AcDbBlockEnd
  0
BLOCK
  5
2A7
100
AcDbEntity
  8
0
100
AcDbBlockBegin
 62
2
  6
CONTINUOUS
  2
*D11
 70
65
 10
0.0
 20
0.0
  3
*D11
  1

  0
MTEXT
  5
2A8
100
AcDbEntity
  8
0
100
AcDbMText
 62
5
  6
CONTINUOUS
  7
TEXTSTYLE_2
 71
3
 72
1
 10
207.047675157
 20
254.1924026937
 30
0.0
 11
0.0
 21
1.0
 31
0.0
 44
0.9
  1
{\Fgdt;n}\Ftxt;19
 40
3.5714285714
 41
9.6088435374
  0
LINE
  5
2A9
100
AcDbEntity
  8
0
100
AcDbLine
 62
2
  6
CONTINUOUS
 10
246.5119608713
 20
261.0033829294
 11
209.3691037284
 21
261.0033829294
  0
LINE
  5
2AA
100
AcDbEntity
  8
0
100
AcDbLine
 62
2
  6
CONTINUOUS
 10
246.5119608713
 20
280.0033829294
 11
209.3691037284
 21
280.0033829294
  0
LINE
  5
2AB
100
AcDbEntity
  8
0
100
AcDbLine
 62
2
  6
CONTINUOUS
 10
211.5119608713
 20
261.0033829294
 11
211.5119608713
 21
244.5835591563
  0
LINE
  5
2AC
100
AcDbEntity
  8
0
100
AcDbLine
 62
2
  6
CONTINUOUS
 10
211.5119608713
 20
244.5835591563
 11
211.5119608713
 21
270.5033829294
  0
LINE
  5
2AD
100
AcDbEntity
  8
0
100
AcDbLine
 62
2
  6
CONTINUOUS
 10
211.5119608713
 20
280.0033829294
 11
211.5119608713
 21
288.5748115008
  0
LINE
  5
2AE
100
AcDbEntity
  8
0
100
AcDbLine
 62
2
  6
CONTINUOUS
 10
211.5119608713
 20
288.5748115008
 11
211.5119608713
 21
270.5033829294
  0
INSERT
  5
2AF
100
AcDbEntity
  8
0
100
AcDbBlockReference
 62
2
  6
CONTINUOUS
  2
_FILLED
 10
211.5119608713
 20
261.0033829294
 41
5.0
 42
5.0
 43
5.0
 50
90.0
  0
INSERT
  5
2B0
100
AcDbEntity
  8
0
100
AcDbBlockReference
 62
2
  6
CONTINUOUS
  2
_FILLED
 10
211.5119608713
 20
280.0033829294
 41
5.0
 42
5.0
 43
5.0
 50
270.0
  0
ENDBLK
  5
2B1
100
AcDbEntity
  8
0
  6
BYBLOCK
 62
0
100
AcDbBlockEnd
  0
BLOCK
  5
2B2
100
AcDbEntity
  8
0
100
AcDbBlockBegin
 62
2
  6
CONTINUOUS
  2
*D12
 70
65
 10
0.0
 20
0.0
  3
*D12
  1

  0
MTEXT
  5
2B3
100
AcDbEntity
  8
0
100
AcDbMText
 62
5
  6
CONTINUOUS
  7
STANDARD
 71
2
 72
1
 10
249.8691037284
 20
339.9676686437
 30
0.0
 11
1.0
 21
0.0
 31
0.0
 44
0.9
  1
31
 40
3.5714285714
 41
4.5918367347
  0
LINE
  5
2B4
100
AcDbEntity
  8
0
100
AcDbLine
 62
2
  6
CONTINUOUS
 10
265.3691037284
 20
311.2176686437
 11
265.3691037284
 21
337.6462400723
  0
LINE
  5
2B5
100
AcDbEntity
  8
0
100
AcDbLine
 62
2
  6
CONTINUOUS
 10
234.3691037284
 20
311.2176686437
 11
234.3691037284
 21
337.6462400723
  0
LINE
  5
2B6
100
AcDbEntity
  8
0
100
AcDbLine
 62
2
  6
CONTINUOUS
 10
265.3691037284
 20
335.5033829294
 11
249.8691037284
 21
335.5033829294
  0
LINE
  5
2B7
100
AcDbEntity
  8
0
100
AcDbLine
 62
2
  6
CONTINUOUS
 10
234.3691037284
 20
335.5033829294
 11
249.8691037284
 21
335.5033829294
  0
INSERT
  5
2B8
100
AcDbEntity
  8
0
100
AcDbBlockReference
 62
2
  6
CONTINUOUS
  2
_FILLED
 10
265.3691037284
 20
335.5033829294
 41
5.0
 42
5.0
 43
5.0
  0
INSERT
  5
2B9
100
AcDbEntity
  8
0
100
AcDbBlockReference
 62
2
  6
CONTINUOUS
  2
_FILLED
 10
234.3691037284
 20
335.5033829294
 41
5.0
 42
5.0
 43
5.0
 50
180.0
  0
ENDBLK
  5
2BA
100
AcDbEntity
  8
0
  6
BYBLOCK
 62
0
100
AcDbBlockEnd
  0
BLOCK
  5
2BB
100
AcDbEntity
  8
0
100
AcDbBlockBegin
 62
2
  6
CONTINUOUS
  2
*D13
 70
65
 10
0.0
 20
0.0
  3
*D13
  1

  0
MTEXT
  5
2BC
100
AcDbEntity
  8
0
100
AcDbMText
 62
5
  6
CONTINUOUS
  7
TEXTSTYLE_2
 71
1
 72
1
 10
558.2125746742
 20
325.5110420998
 30
0.0
 11
0.7054453572
 21
0.7087643106
 31
0.0
 44
0.9
  1
{\Fgdt;n}\Ftxt;107
 40
3.5714285714
 41
12.4149659864
  0
LINE
  5
2BD
100
AcDbEntity
  8
0
100
AcDbLine
 62
2
  6
CONTINUOUS
 10
547.502516893
 20
308.4222735484
 11
509.7611902838
 21
270.5033829294
  0
LINE
  5
2BE
100
AcDbEntity
  8
0
100
AcDbLine
 62
2
  6
CONTINUOUS
 10
509.7611902838
 20
270.5033829294
 11
570.1347811757
 21
331.1610172784
  0
LINE
  5
2BF
100
AcDbEntity
  8
0
100
AcDbLine
 62
2
  6
CONTINUOUS
 10
472.0198636746
 20
232.5844923104
 11
509.7611902838
 21
270.5033829294
  0
INSERT
  5
2C0
100
AcDbEntity
  8
0
100
AcDbBlockReference
 62
2
  6
CONTINUOUS
  2
_FILLED
 10
547.502516893
 20
308.4222735484
 41
5.0
 42
5.0
 43
5.0
 50
45.1344649811
  0
INSERT
  5
2C1
100
AcDbEntity
  8
0
100
AcDbBlockReference
 62
2
  6
CONTINUOUS
  2
_FILLED
 10
472.0198636746
 20
232.5844923104
 41
5.0
 42
5.0
 43
5.0
 50
225.1344649811
  0
ENDBLK
  5
2C2
100
AcDbEntity
  8
0
  6
BYBLOCK
 62
0
100
AcDbBlockEnd
  0
BLOCK
  5
2C3
100
AcDbEntity
  8
0
100
AcDbBlockBegin
 62
2
  6
CONTINUOUS
  2
*D14
 70
65
 10
0.0
 20
0.0
  3
*D14
  1

  0
MTEXT
  5
2C4
100
AcDbEntity
  8
0
100
AcDbMText
 62
5
  6
CONTINUOUS
  7
TEXTSTYLE_2
 71
2
 72
1
 10
509.7611902838
 20
351.3962400723
 30
0.0
 11
1.0
 21
0.0
 31
0.0
 44
0.9
  1
{\Fgdt;o}\Ftxt;80
 40
3.5714285714
 41
10.5229591837
  0
LINE
  5
2C5
100
AcDbEntity
  8
0
100
AcDbLine
 62
2
  6
CONTINUOUS
 10
469.7611902838
 20
306.2624591375
 11
469.7611902838
 21
349.0748115008
  0
LINE
  5
2C6
100
AcDbEntity
  8
0
100
AcDbLine
 62
2
  6
CONTINUOUS
 10
549.7611902838
 20
306.2624591375
 11
549.7611902838
 21
349.0748115008
  0
LINE
  5
2C7
100
AcDbEntity
  8
0
100
AcDbLine
 62
2
  6
CONTINUOUS
 10
469.7611902838
 20
346.931954358
 11
509.7611902838
 21
346.931954358
  0
LINE
  5
2C8
100
AcDbEntity
  8
0
100
AcDbLine
 62
2
  6
CONTINUOUS
 10
549.7611902838
 20
346.931954358
 11
509.7611902838
 21
346.931954358
  0
INSERT
  5
2C9
100
AcDbEntity
  8
0
100
AcDbBlockReference
 62
2
  6
CONTINUOUS
  2
_FILLED
 10
469.7611902838
 20
346.931954358
 41
5.0
 42
5.0
 43
5.0
 50
180.0
  0
INSERT
  5
2CA
100
AcDbEntity
  8
0
100
AcDbBlockReference
 62
2
  6
CONTINUOUS
  2
_FILLED
 10
549.7611902838
 20
346.931954358
 41
5.0
 42
5.0
 43
5.0
  0
ENDBLK
  5
2CB
100
AcDbEntity
  8
0
  6
BYBLOCK
 62
0
100
AcDbBlockEnd
  0
BLOCK
  5
2CC
100
AcDbEntity
  8
0
100
AcDbBlockBegin
 62
2
  6
CONTINUOUS
  2
*D15
 70
65
 10
0.0
 20
0.0
  3
*D15
  1

  0
TEXT
  5
2CD
100
AcDbEntity
  8
0
100
AcDbText
 62
5
  6
CONTINUOUS
 10
199.7262465856
 20
261.413246875
  7
TEXTSTYLE_2
 40
3.5714285714
  1
n
 50
90.0
 41
1.0
 72
1
 11
199.7262465856
 21
263.7941992559
100
AcDbText
  0
TEXT
  5
2CE
100
AcDbEntity
  8
0
100
AcDbText
 62
5
  6
CONTINUOUS
 10
199.7262465856
 20
266.1751516369
  7
STANDARD
 40
3.5714285714
  1
70
 50
90.0
 41
0.7857142857
 72
1
 11
199.7262465856
 21
268.9812740859
100
AcDbText
  0
TEXT
  5
2CF
100
AcDbEntity
  8
0
100
AcDbText
 62
5
  6
CONTINUOUS
 10
197.5833894427
 20
271.7873965348
  7
TEXTSTYLE_3
 40
2.1428571429
  1
+0.05
 50
90.0
 41
0.7142857143
 72
1
 11
197.5833894427
 21
275.6139271471
100
AcDbText
  0
TEXT
  5
2D0
100
AcDbEntity
  8
0
100
AcDbText
 62
5
  6
CONTINUOUS
 10
200.4405322999
 20
271.7873965348
  7
TEXTSTYLE_3
 40
2.1428571429
  1
+0.02
 50
90.0
 41
0.7285714286
 72
1
 11
200.4405322999
 21
275.6904577593
100
AcDbText
  0
LINE
  5
2D1
100
AcDbEntity
  8
0
100
AcDbLine
 62
2
  6
CONTINUOUS
 10
233.6548180141
 20
235.5033829294
 11
199.3691037284
 21
235.5033829294
  0
LINE
  5
2D2
100
AcDbEntity
  8
0
100
AcDbLine
 62
2
  6
CONTINUOUS
 10
233.6548180141
 20
305.5033829294
 11
199.3691037284
 21
305.5033829294
  0
LINE
  5
2D3
100
AcDbEntity
  8
0
100
AcDbLine
 62
2
  6
CONTINUOUS
 10
201.5119608713
 20
235.5033829294
 11
201.5119608713
 21
270.5033829294
  0
LINE
  5
2D4
100
AcDbEntity
  8
0
100
AcDbLine
 62
2
  6
CONTINUOUS
 10
201.5119608713
 20
305.5033829294
 11
201.5119608713
 21
270.5033829294
  0
INSERT
  5
2D5
100
AcDbEntity
  8
0
100
AcDbBlockReference
 62
2
  6
CONTINUOUS
  2
_FILLED
 10
201.5119608713
 20
235.5033829294
 41
5.0
 42
5.0
 43
5.0
 50
270.0
  0
INSERT
  5
2D6
100
AcDbEntity
  8
0
100
AcDbBlockReference
 62
2
  6
CONTINUOUS
  2
_FILLED
 10
201.5119608713
 20
305.5033829294
 41
5.0
 42
5.0
 43
5.0
 50
90.0
  0
ENDBLK
  5
2D7
100
AcDbEntity
  8
0
  6
BYBLOCK
 62
0
100
AcDbBlockEnd
  0
BLOCK
  5
2D8
100
AcDbEntity
  8
0
100
AcDbBlockBegin
 62
2
  6
CONTINUOUS
  2
*D16
 70
65
 10
0.0
 20
0.0
  3
*D16
  1

  0
MTEXT
  5
2D9
100
AcDbEntity
  8
0
100
AcDbMText
 62
5
  6
CONTINUOUS
  7
STANDARD
 71
3
 72
1
 10
225.4658305073
 20
218.5390972151
 30
0.0
 11
1.0
 21
0.0
 31
0.0
 44
0.9
  1
5.3
 40
3.5714285714
 41
7.1428571429
  0
LINE
  5
2DA
100
AcDbEntity
  8
0
100
AcDbLine
 62
2
  6
CONTINUOUS
 10
234.3691037284
 20
229.7890972151
 11
234.3691037284
 21
211.931954358
  0
LINE
  5
2DB
100
AcDbEntity
  8
0
100
AcDbLine
 62
2
  6
CONTINUOUS
 10
239.6691037284
 20
229.7890972151
 11
239.6691037284
 21
211.931954358
  0
LINE
  5
2DC
100
AcDbEntity
  8
0
100
AcDbLine
 62
2
  6
CONTINUOUS
 10
234.3691037284
 20
214.0748115008
 11
218.3229733644
 21
214.0748115008
  0
LINE
  5
2DD
100
AcDbEntity
  8
0
100
AcDbLine
 62
2
  6
CONTINUOUS
 10
218.3229733644
 20
214.0748115008
 11
237.0191037284
 21
214.0748115008
  0
LINE
  5
2DE
100
AcDbEntity
  8
0
100
AcDbLine
 62
2
  6
CONTINUOUS
 10
239.6691037284
 20
214.0748115008
 11
248.2405322999
 21
214.0748115008
  0
LINE
  5
2DF
100
AcDbEntity
  8
0
100
AcDbLine
 62
2
  6
CONTINUOUS
 10
248.2405322999
 20
214.0748115008
 11
237.0191037284
 21
214.0748115008
  0
INSERT
  5
2E0
100
AcDbEntity
  8
0
100
AcDbBlockReference
 62
2
  6
CONTINUOUS
  2
_FILLED
 10
234.3691037284
 20
214.0748115008
 41
5.0
 42
5.0
 43
5.0
  0
INSERT
  5
2E1
100
AcDbEntity
  8
0
100
AcDbBlockReference
 62
2
  6
CONTINUOUS
  2
_FILLED
 10
239.6691037284
 20
214.0748115008
 41
5.0
 42
5.0
 43
5.0
 50
180.0
  0
ENDBLK
  5
2E2
100
AcDbEntity
  8
0
  6
BYBLOCK
 62
0
100
AcDbBlockEnd
  0
BLOCK
  5
2E3
100
AcDbEntity
  8
0
100
AcDbBlockBegin
 62
2
  6
CONTINUOUS
  2
*D17
 70
65
 10
0.0
 20
0.0
  3
*D17
  1

  0
MTEXT
  5
2E4
100
AcDbEntity
  8
0
100
AcDbMText
 62
5
  6
CONTINUOUS
  7
STANDARD
 71
3
 72
1
 10
464.1924845586
 20
302.9079436968
 30
0.0
 11
0.8586216119
 21
-0.5126099176
 31
0.0
 44
0.9
  1
     \Fgdt;{\Fgdt;n}\Ftxt;90
 40
3.5714285714
 41
24.4047619048
  0
LINE
  5
2E5
100
AcDbEntity
  8
0
100
AcDbLine
 62
2
  6
CONTINUOUS
 10
471.1232177482
 20
293.5708292193
 11
509.7611902838
 21
270.5033829294
  0
LINE
  5
2E6
100
AcDbEntity
  8
0
100
AcDbLine
 62
2
  6
CONTINUOUS
 10
509.7611902838
 20
270.5033829294
 11
440.9495914219
 21
311.5849344887
  0
LINE
  5
2E7
100
AcDbEntity
  8
0
100
AcDbLine
 62
2
  6
CONTINUOUS
 10
548.3991628194
 20
247.4359366395
 11
509.7611902838
 21
270.5033829294
  0
INSERT
  5
2E8
100
AcDbEntity
  8
0
100
AcDbBlockReference
 62
2
  6
CONTINUOUS
  2
_FILLED
 10
471.1232177482
 20
293.5708292193
 41
5.0
 42
5.0
 43
5.0
 50
149.1621680553
  0
INSERT
  5
2E9
100
AcDbEntity
  8
0
100
AcDbBlockReference
 62
2
  6
CONTINUOUS
  2
_FILLED
 10
548.3991628194
 20
247.4359366395
 41
5.0
 42
5.0
 43
5.0
 50
329.1621680553
  0
ENDBLK
  5
2EA
100
AcDbEntity
  8
0
  6
BYBLOCK
 62
0
100
AcDbBlockEnd
  0
BLOCK
  5
2EB
100
AcDbEntity
  8
0
100
AcDbBlockBegin
 62
2
  6
CONTINUOUS
  2
*D18
 70
65
 10
0.0
 20
0.0
  3
*D18
  1

  0
MTEXT
  5
2EC
100
AcDbEntity
  8
0
100
AcDbMText
 62
5
  6
CONTINUOUS
  7
STANDARD
 71
1
 72
1
 10
486.7010696487
 20
334.2533829294
 30
0.0
 11
1.0
 21
0.0
 31
0.0
 44
0.9
  1
M6        
 40
3.5714285714
 41
28.3163265306
  0
LINE
  5
2ED
100
AcDbEntity
  8
0
100
AcDbLine
 62
2
  6
CONTINUOUS
 10
480.9498700474
 20
301.9656580324
 11
480.9538880453
 21
331.9327249619
  0
LINE
  5
2EE
100
AcDbEntity
  8
0
100
AcDbLine
 62
2
  6
CONTINUOUS
 10
474.9498699935
 20
301.9656580324
 11
474.9538880993
 21
331.9335294447
  0
LINE
  5
2EF
100
AcDbEntity
  8
0
100
AcDbLine
 62
2
  6
CONTINUOUS
 10
480.9536007301
 20
329.7898678384
 11
515.0173961793
 21
329.7890972151
  0
LINE
  5
2F0
100
AcDbEntity
  8
0
100
AcDbLine
 62
2
  6
CONTINUOUS
 10
515.0173961793
 20
329.7890972151
 11
477.953600757
 21
329.7902700797
  0
LINE
  5
2F1
100
AcDbEntity
  8
0
100
AcDbLine
 62
2
  6
CONTINUOUS
 10
474.953600784
 20
329.7906723211
 11
466.3821722896
 21
329.7918215821
  0
LINE
  5
2F2
100
AcDbEntity
  8
0
100
AcDbLine
 62
2
  6
CONTINUOUS
 10
466.3821722896
 20
329.7918215821
 11
477.953600757
 21
329.7902700797
  0
INSERT
  5
2F3
100
AcDbEntity
  8
0
100
AcDbBlockReference
 62
2
  6
CONTINUOUS
  2
_FILLED
 10
480.9536007301
 20
329.7898678384
 41
5.0
 42
5.0
 43
5.0
 50
179.998703801
  0
INSERT
  5
2F4
100
AcDbEntity
  8
0
100
AcDbBlockReference
 62
2
  6
CONTINUOUS
  2
_FILLED
 10
474.953600784
 20
329.7906723211
 41
5.0
 42
5.0
 43
5.0
 50
359.9923177559
  0
ENDBLK
  5
2F5
100
AcDbEntity
  8
0
  6
BYBLOCK
 62
0
100
AcDbBlockEnd
  0
BLOCK
  5
2F6
100
AcDbEntity
  8
0
100
AcDbBlockBegin
 62
2
  6
CONTINUOUS
  2
*D19
 70
65
 10
0.0
 20
0.0
  3
*D19
  1

  0
MTEXT
  5
2F7
100
AcDbEntity
  8
0
100
AcDbMText
 62
5
  6
CONTINUOUS
  7
STANDARD
 71
1
 72
1
 10
350.8859755441
 20
240.8252735507
 30
0.0
 11
0.4561034992
 21
-0.8899267375
 31
0.0
 44
0.9
  1
R0.8
 40
3.5714285714
 41
10.4591836735
  0
LINE
  5
2F8
100
AcDbEntity
  8
0
100
AcDbLine
 62
2
  6
CONTINUOUS
 10
334.8042209291
 20
262.4153243194
 11
351.6835585952
 21
229.4811900121
  0
INSERT
  5
2F9
100
AcDbEntity
  8
0
100
AcDbBlockReference
 62
2
  6
CONTINUOUS
  2
_FILLED
 10
334.8042209291
 20
262.4153243194
 41
5.0
 42
5.0
 43
5.0
 50
117.1359578096
  0
ENDBLK
  5
2FA
100
AcDbEntity
  8
0
  6
BYBLOCK
 62
0
100
AcDbBlockEnd
  0
BLOCK
  5
2FB
100
AcDbEntity
  8
0
100
AcDbBlockBegin
 62
2
  6
CONTINUOUS
  2
*D20
 70
65
 10
0.0
 20
0.0
  3
*D20
  1

  0
MTEXT
  5
2FC
100
AcDbEntity
  8
0
100
AcDbMText
 62
5
  6
CONTINUOUS
  7
TEXTSTYLE_2
 71
2
 72
1
 10
309.9741294764
 20
246.231736091
 30
0.0
 11
0.0
 21
1.0
 31
0.0
 44
0.9
  1
{\Fgdt;n}\Ftxt;70
 40
3.5714285714
 41
10.3741496599
  0
LINE
  5
2FD
100
AcDbEntity
  8
0
100
AcDbLine
 62
2
  6
CONTINUOUS
 10
310.152700905
 20
235.5033829294
 11
316.5812723336
 21
235.5033829294
  0
LINE
  5
2FE
100
AcDbEntity
  8
0
100
AcDbLine
 62
2
  6
CONTINUOUS
 10
310.152700905
 20
305.5033829294
 11
316.5812723336
 21
305.5033829294
  0
LINE
  5
2FF
100
AcDbEntity
  8
0
100
AcDbLine
 62
2
  6
CONTINUOUS
 10
314.4384151907
 20
235.5033829294
 11
314.4384151907
 21
270.5033829294
  0
LINE
  5
300
100
AcDbEntity
  8
0
100
AcDbLine
 62
2
  6
CONTINUOUS
 10
314.4384151907
 20
305.5033829294
 11
314.4384151907
 21
270.5033829294
  0
INSERT
  5
301
100
AcDbEntity
  8
0
100
AcDbBlockReference
 62
2
  6
CONTINUOUS
  2
_FILLED
 10
314.4384151907
 20
235.5033829294
 41
5.0
 42
5.0
 43
5.0
 50
270.0
  0
INSERT
  5
302
100
AcDbEntity
  8
0
100
AcDbBlockReference
 62
2
  6
CONTINUOUS
  2
_FILLED
 10
314.4384151907
 20
305.5033829294
 41
5.0
 42
5.0
 43
5.0
 50
90.0
  0
ENDBLK
  5
303
100
AcDbEntity
  8
0
  6
BYBLOCK
 62
0
100
AcDbBlockEnd
  0
BLOCK
  5
304
100
AcDbEntity
  8
0
100
AcDbBlockBegin
 62
2
  6
CONTINUOUS
  2
*D21
 70
65
 10
0.0
 20
0.0
  3
*D21
  1

  0
MTEXT
  5
305
100
AcDbEntity
  8
0
100
AcDbMText
 62
5
  6
CONTINUOUS
  7
STANDARD
 71
2
 72
1
 10
300.8691037284
 20
359.9676686437
 30
0.0
 11
1.0
 21
0.0
 31
0.0
 44
0.9
  1
51
 40
3.5714285714
 41
4.5918367347
  0
LINE
  5
306
100
AcDbEntity
  8
0
100
AcDbLine
 62
2
  6
CONTINUOUS
 10
275.3691037284
 20
301.2642750888
 11
275.3691037284
 21
357.6462400723
  0
LINE
  5
307
100
AcDbEntity
  8
0
100
AcDbLine
 62
2
  6
CONTINUOUS
 10
326.3691037284
 20
306.2176686437
 11
326.3691037284
 21
357.6462400723
  0
LINE
  5
308
100
AcDbEntity
  8
0
100
AcDbLine
 62
2
  6
CONTINUOUS
 10
275.3691037284
 20
355.5033829294
 11
300.8691037284
 21
355.5033829294
  0
LINE
  5
309
100
AcDbEntity
  8
0
100
AcDbLine
 62
2
  6
CONTINUOUS
 10
326.3691037284
 20
355.5033829294
 11
300.8691037284
 21
355.5033829294
  0
INSERT
  5
30A
100
AcDbEntity
  8
0
100
AcDbBlockReference
 62
2
  6
CONTINUOUS
  2
_FILLED
 10
275.3691037284
 20
355.5033829294
 41
5.0
 42
5.0
 43
5.0
 50
180.0
  0
INSERT
  5
30B
100
AcDbEntity
  8
0
100
AcDbBlockReference
 62
2
  6
CONTINUOUS
  2
_FILLED
 10
326.3691037284
 20
355.5033829294
 41
5.0
 42
5.0
 43
5.0
  0
ENDBLK
  5
30C
100
AcDbEntity
  8
0
  6
BYBLOCK
 62
0
100
AcDbBlockEnd
  0
BLOCK
  5
30D
100
AcDbEntity
  8
0
100
AcDbBlockBegin
 62
2
  6
CONTINUOUS
  2
*D22
 70
65
 10
0.0
 20
0.0
  3
*D22
  1

  0
MTEXT
  5
30E
100
AcDbEntity
  8
0
100
AcDbMText
 62
5
  6
CONTINUOUS
  7
STANDARD
 71
1
 72
1
 10
337.8782281524
 20
219.9676686437
 30
0.0
 11
1.0
 21
0.0
 31
0.0
 44
0.9
  1
3
 40
3.5714285714
 41
2.5510204082
  0
LINE
  5
30F
100
AcDbEntity
  8
0
100
AcDbLine
 62
2
  6
CONTINUOUS
 10
329.3691037284
 20
243.7890972151
 11
329.3691037284
 21
213.3605257865
  0
LINE
  5
310
100
AcDbEntity
  8
0
100
AcDbLine
 62
2
  6
CONTINUOUS
 10
326.3691037284
 20
243.7890972151
 11
326.3691037284
 21
213.3605257865
  0
LINE
  5
311
100
AcDbEntity
  8
0
100
AcDbLine
 62
2
  6
CONTINUOUS
 10
329.3691037284
 20
215.5033829294
 11
340.4292485606
 21
215.5033829294
  0
LINE
  5
312
100
AcDbEntity
  8
0
100
AcDbLine
 62
2
  6
CONTINUOUS
 10
340.4292485606
 20
215.5033829294
 11
327.8691037284
 21
215.5033829294
  0
LINE
  5
313
100
AcDbEntity
  8
0
100
AcDbLine
 62
2
  6
CONTINUOUS
 10
326.3691037284
 20
215.5033829294
 11
317.797675157
 21
215.5033829294
  0
LINE
  5
314
100
AcDbEntity
  8
0
100
AcDbLine
 62
2
  6
CONTINUOUS
 10
317.797675157
 20
215.5033829294
 11
327.8691037284
 21
215.5033829294
  0
INSERT
  5
315
100
AcDbEntity
  8
0
100
AcDbBlockReference
 62
2
  6
CONTINUOUS
  2
_FILLED
 10
329.3691037284
 20
215.5033829294
 41
5.0
 42
5.0
 43
5.0
 50
180.0
  0
INSERT
  5
316
100
AcDbEntity
  8
0
100
AcDbBlockReference
 62
2
  6
CONTINUOUS
  2
_FILLED
 10
326.3691037284
 20
215.5033829294
 41
5.0
 42
5.0
 43
5.0
  0
ENDBLK
  5
317
100
AcDbEntity
  8
0
  6
BYBLOCK
 62
0
100
AcDbBlockEnd
  0
BLOCK
  5
318
100
AcDbEntity
  8
0
100
AcDbBlockBegin
 62
2
  6
CONTINUOUS
  2
*D23
 70
65
 10
0.0
 20
0.0
  3
*D23
  1

  0
MTEXT
  5
319
100
AcDbEntity
  8
0
100
AcDbMText
 62
5
  6
CONTINUOUS
  7
TEXTSTYLE_2
 71
2
 72
1
 10
400.7619608713
 20
270.5033829294
 30
0.0
 11
0.0
 21
1.0
 31
0.0
 44
0.9
  1
{\Fgdt;n}\Ftxt;52
 40
3.5714285714
 41
10.119047619
  0
LINE
  5
31A
100
AcDbEntity
  8
0
100
AcDbLine
 62
2
  6
CONTINUOUS
 10
331.2262465856
 20
244.5033829294
 11
407.3691037284
 21
244.5033829294
  0
LINE
  5
31B
100
AcDbEntity
  8
0
100
AcDbLine
 62
2
  6
CONTINUOUS
 10
331.2236015267
 20
296.5033829294
 11
407.3691037284
 21
296.5033829294
  0
LINE
  5
31C
100
AcDbEntity
  8
0
100
AcDbLine
 62
2
  6
CONTINUOUS
 10
405.2262465856
 20
244.5033829294
 11
405.2262465856
 21
270.5033829294
  0
LINE
  5
31D
100
AcDbEntity
  8
0
100
AcDbLine
 62
2
  6
CONTINUOUS
 10
405.2262465856
 20
296.5033829294
 11
405.2262465856
 21
270.5033829294
  0
INSERT
  5
31E
100
AcDbEntity
  8
0
100
AcDbBlockReference
 62
2
  6
CONTINUOUS
  2
_FILLED
 10
405.2262465856
 20
244.5033829294
 41
5.0
 42
5.0
 43
5.0
 50
270.0
  0
INSERT
  5
31F
100
AcDbEntity
  8
0
100
AcDbBlockReference
 62
2
  6
CONTINUOUS
  2
_FILLED
 10
405.2262465856
 20
296.5033829294
 41
5.0
 42
5.0
 43
5.0
 50
90.0
  0
ENDBLK
  5
320
100
AcDbEntity
  8
0
  6
BYBLOCK
 62
0
100
AcDbBlockEnd
  0
BLOCK
  5
321
100
AcDbEntity
  8
0
100
AcDbBlockBegin
 62
2
  6
CONTINUOUS
  2
*D24
 70
65
 10
0.0
 20
0.0
  3
*D24
  1

  0
MTEXT
  5
322
100
AcDbEntity
  8
0
100
AcDbMText
 62
5
  6
CONTINUOUS
  7
STANDARD
 71
3
 72
1
 10
50.5610935363
 20
303.1505352796
 30
0.0
 11
0.8566340639
 21
-0.5159244912
 31
0.0
 44
0.9
  1
    \Fgdt;{\Fgdt;n}\Ftxt;62
 40
3.5714285714
 41
21.5986394558
  0
LINE
  5
323
100
AcDbEntity
  8
0
100
AcDbLine
 62
2
  6
CONTINUOUS
 10
69.5593460781
 20
286.4970421571
 11
96.1150020577
 21
270.5033829294
  0
LINE
  5
324
100
AcDbEntity
  8
0
100
AcDbLine
 62
2
  6
CONTINUOUS
 10
96.1150020577
 20
270.5033829294
 11
29.7557289097
 21
310.4695431382
  0
LINE
  5
325
100
AcDbEntity
  8
0
100
AcDbLine
 62
2
  6
CONTINUOUS
 10
122.6706580372
 20
254.5097237016
 11
96.1150020577
 21
270.5033829294
  0
INSERT
  5
326
100
AcDbEntity
  8
0
100
AcDbBlockReference
 62
2
  6
CONTINUOUS
  2
_FILLED
 10
69.5593460781
 20
286.4970421571
 41
5.0
 42
5.0
 43
5.0
 50
148.9407306939
  0
INSERT
  5
327
100
AcDbEntity
  8
0
100
AcDbBlockReference
 62
2
  6
CONTINUOUS
  2
_FILLED
 10
122.6706580372
 20
254.5097237016
 41
5.0
 42
5.0
 43
5.0
 50
328.9407306939
  0
ENDBLK
  5
328
100
AcDbEntity
  8
0
  6
BYBLOCK
 62
0
100
AcDbBlockEnd
  0
BLOCK
  5
329
100
AcDbEntity
  8
0
100
AcDbBlockBegin
 62
2
  6
CONTINUOUS
  2
*D25
 70
65
 10
0.0
 20
0.0
  3
*D25
  1

  0
MTEXT
  5
32A
100
AcDbEntity
  8
0
100
AcDbMText
 62
5
  6
CONTINUOUS
  7
STANDARD
 71
3
 72
1
 10
95.4796783617
 20
217.1105215918
 30
0.0
 11
0.9999990604
 21
0.0013708553
 31
0.0
 44
0.9
  1
M5
 40
3.5714285714
 41
5.612244898
  0
LINE
  5
32B
100
AcDbEntity
  8
0
100
AcDbLine
 62
2
  6
CONTINUOUS
 10
124.6179419538
 20
268.3571006617
 11
124.697196212
 21
210.5434255537
  0
LINE
  5
32C
100
AcDbEntity
  8
0
100
AcDbLine
 62
2
  6
CONTINUOUS
 10
129.6179372557
 20
268.3639549383
 11
129.6971915139
 21
210.5502798302
  0
LINE
  5
32D
100
AcDbEntity
  8
0
100
AcDbLine
 62
2
  6
CONTINUOUS
 10
124.6942586649
 20
212.686280683
 11
89.8735586269
 21
212.6385464965
  0
LINE
  5
32E
100
AcDbEntity
  8
0
100
AcDbLine
 62
2
  6
CONTINUOUS
 10
89.8735586269
 20
212.6385464965
 11
127.1942563159
 21
212.6897078213
  0
LINE
  5
32F
100
AcDbEntity
  8
0
100
AcDbLine
 62
2
  6
CONTINUOUS
 10
129.6942539668
 20
212.6931349596
 11
138.2656744843
 21
212.704885148
  0
LINE
  5
330
100
AcDbEntity
  8
0
100
AcDbLine
 62
2
  6
CONTINUOUS
 10
138.2656744843
 20
212.704885148
 11
127.1942563159
 21
212.6897078213
  0
INSERT
  5
331
100
AcDbEntity
  8
0
100
AcDbBlockReference
 62
2
  6
CONTINUOUS
  2
_FILLED
 10
124.6942586649
 20
212.686280683
 41
5.0
 42
5.0
 43
5.0
 50
0.0785442484
  0
INSERT
  5
332
100
AcDbEntity
  8
0
100
AcDbBlockReference
 62
2
  6
CONTINUOUS
  2
_FILLED
 10
129.6942539668
 20
212.6931349596
 41
5.0
 42
5.0
 43
5.0
 50
180.0785442484
  0
ENDBLK
  5
333
100
AcDbEntity
  8
0
  6
BYBLOCK
 62
0
100
AcDbBlockEnd
  0
BLOCK
  5
334
100
AcDbEntity
  8
0
100
AcDbBlockBegin
 62
2
  6
CONTINUOUS
  2
*D26
 70
65
 10
0.0
 20
0.0
  3
*D26
  1

  0
MTEXT
  5
335
100
AcDbEntity
  8
0
100
AcDbMText
 62
5
  6
CONTINUOUS
  7
STANDARD
 71
1
 72
1
 10
337.7754756122
 20
234.5398409163
 30
0.0
 11
0.3847344537
 21
-0.923027302
 31
0.0
 44
0.9
  1
R1
 40
3.5714285714
 41
4.8469387755
  0
LINE
  5
336
100
AcDbEntity
  8
0
100
AcDbLine
 62
2
  6
CONTINUOUS
 10
328.7538381821
 20
244.5803556274
 11
335.5196023559
 21
228.3484195702
  0
INSERT
  5
337
100
AcDbEntity
  8
0
100
AcDbBlockReference
 62
2
  6
CONTINUOUS
  2
_FILLED
 10
328.7538381821
 20
244.5803556274
 41
5.0
 42
5.0
 43
5.0
 50
112.6272558141
  0
ENDBLK
  5
338
100
AcDbEntity
  8
0
  6
BYBLOCK
 62
0
100
AcDbBlockEnd
  0
ENDSEC
  0
SECTION
  2
ENTITIES
  0
DIMENSION
  5
339
100
AcDbEntity
  8
ZEICHNUNGSBEMASSUNGEN
100
AcDbDimension
 62
2
  6
CONTINUOUS
  2
*D0
 10
362.3691037284
 20
369.7890972151
 11
294.5425731162
 21
372.4676686437
 70
160
 71
2
 42
128.0
  3
DIMSTYLE_1
100
AcDbAlignedDimension
 13
234.3691037284
 23
311.2176686437
 14
362.3691037284
 24
279.2176686437
100
AcDbRotatedDimension
  0
DIMENSION
  5
33A
100
AcDbEntity
  8
ZEICHNUNGSBEMASSUNGEN
100
AcDbDimension
 62
2
  6
CONTINUOUS
  2
*D1
 10
274.3691037284
 20
202.6462400723
 11
251.5629812795
 21
205.3248115008
 70
160
 71
2
 42
40.0
  3
DIMSTYLE_2
100
AcDbAlignedDimension
 13
234.3691037284
 23
229.7890972151
 14
274.3691037284
 24
260.2890972151
100
AcDbRotatedDimension
  0
DIMENSION
  5
33B
100
AcDbEntity
  8
ZEICHNUNGSBEMASSUNGEN
100
AcDbDimension
 62
2
  6
CONTINUOUS
  2
*D2
 10
275.3691037284
 20
355.5033829294
 11
252.4456343407
 21
358.181954358
 70
160
 71
2
 42
41.0
  3
DIMSTYLE_2
100
AcDbAlignedDimension
 13
234.3691037284
 23
319.7890972151
 14
275.3691037284
 24
301.0018307679
100
AcDbRotatedDimension
  0
DIMENSION
  5
33C
100
AcDbEntity
  8
ZEICHNUNGSBEMASSUNGEN
100
AcDbDimension
 62
2
  6
CONTINUOUS
  2
*D3
 10
362.3691037284
 20
355.5033829294
 11
341.6905322999
 21
358.181954358
 70
160
 71
2
 42
36.0
  3
DIMSTYLE_2
100
AcDbAlignedDimension
 13
326.3691037284
 23
306.2176686437
 14
362.3691037284
 24
280.1462400723
100
AcDbRotatedDimension
  0
DIMENSION
  5
33D
100
AcDbEntity
  8
0
100
AcDbDimension
 62
2
  6
CONTINUOUS
  2
*D4
 10
379.5119608713
 20
262.5033829294
 11
378.986124078
 21
219.9752527004
 70
160
 71
3
 42
16.0
  1
%%c<>
  3
DIMSTYLE_3
100
AcDbAlignedDimension
 13
363.0833894427
 23
278.5033829294
 14
363.0833894427
 24
262.5033829294
 50
270.0
100
AcDbRotatedDimension
  0
DIMENSION
  5
33E
100
AcDbEntity
  8
0
100
AcDbDimension
 62
2
  6
CONTINUOUS
  2
*D5
 10
334.3691037284
 20
335.5033829294
 11
345.5629812795
 21
338.181954358
 70
160
 71
2
 42
28.0
  3
DIMSTYLE_4
100
AcDbAlignedDimension
 13
362.3691037284
 23
279.2176686437
 14
334.3691037284
 24
286.2176686437
 50
180.0
100
AcDbRotatedDimension
  0
DIMENSION
  5
33F
100
AcDbEntity
  8
0
100
AcDbDimension
 62
2
  6
CONTINUOUS
  2
*D6
 10
392.3691037284
 20
255.5033829294
 11
390.8240518645
 21
268.2417842268
 70
160
 71
2
 42
30.0
  1
%%c<>
  3
DIMSTYLE_4
100
AcDbAlignedDimension
 13
335.0833894427
 23
285.5033829294
 14
335.0833894427
 24
255.5033829294
 50
270.0
100
AcDbRotatedDimension
  0
DIMENSION
  5
340
100
AcDbEntity
  8
0
100
AcDbDimension
 62
2
  6
CONTINUOUS
  2
*D7
 10
36.8292877719
 20
262.5033829294
 11
35.2366090355
 21
269.3368093824
 70
160
 71
2
 42
18.0
  3
DIMSTYLE_4
100
AcDbAlignedDimension
 13
92.9007163434
 23
280.5033829294
 14
95.4857982515
 24
262.5033829294
 50
270.0
100
AcDbRotatedDimension
  0
DIMENSION
  5
341
100
AcDbEntity
  8
0
100
AcDbDimension
 62
2
  6
CONTINUOUS
  2
*D8
 10
360.3691037284
 20
318.3605257865
 11
345.1905322999
 21
321.0390972151
 70
160
 71
2
 42
25.0
  3
DIMSTYLE_4
100
AcDbAlignedDimension
 13
335.3691037284
 23
281.2176686437
 14
360.3691037284
 24
281.2176686437
100
AcDbRotatedDimension
  0
DIMENSION
  5
342
100
AcDbEntity
  8
0
100
AcDbDimension
 62
2
  6
CONTINUOUS
  2
*D9
 10
360.3691037284
 20
326.931954358
 11
380.9150220958
 21
329.6105257865
 70
160
 71
1
 42
2.0
  3
DIMSTYLE_5
100
AcDbAlignedDimension
 13
362.3691037284
 23
279.2176686437
 14
360.3691037284
 24
281.2176686437
 50
180.0
100
AcDbRotatedDimension
  0
DIMENSION
  5
343
100
AcDbEntity
  8
0
100
AcDbDimension
 62
2
  6
CONTINUOUS
  2
*D10
 10
93.6150020577
 20
326.931954358
 11
94.8394918536
 21
329.6105257865
 70
160
 71
2
 42
5.0
  3
DIMSTYLE_5
100
AcDbAlignedDimension
 13
98.6150020577
 23
281.2176686437
 14
93.6150020577
 24
281.2176686437
 50
180.0
100
AcDbRotatedDimension
  0
DIMENSION
  5
344
100
AcDbEntity
  8
0
100
AcDbDimension
 62
2
  6
CONTINUOUS
  2
*D11
 10
211.5119608713
 20
280.0033829294
 11
210.986124078
 21
245.0928438932
 70
160
 71
3
 42
19.0
  1
%%c<>
  3
DIMSTYLE_4
100
AcDbAlignedDimension
 13
246.5119608713
 23
261.0033829294
 14
246.5119608713
 24
280.0033829294
 50
90.0
100
AcDbRotatedDimension
  0
DIMENSION
  5
345
100
AcDbEntity
  8
0
100
AcDbDimension
 62
2
  6
CONTINUOUS
  2
*D12
 10
234.3691037284
 20
335.5033829294
 11
247.5731853611
 21
338.181954358
 70
160
 71
2
 42
31.0
  3
DIMSTYLE_2
100
AcDbAlignedDimension
 13
265.3691037284
 23
311.2176686437
 14
234.3691037284
 24
311.2176686437
 50
180.0
100
AcDbRotatedDimension
  0
DIMENSION
  5
346
100
AcDbEntity
  8
0
100
AcDbDimension
 62
2
  6
CONTINUOUS
  2
*D13
 10
547.502516893
 20
308.4222735484
 11
563.8572652863
 21
328.6509606521
 70
163
 71
1
 42
107.0
  1
<>
  3
DIMSTYLE_6
100
AcDbDiametricDimension
 15
472.0198636746
 25
232.5844923104
  0
DIMENSION
  5
347
100
AcDbEntity
  8
0
100
AcDbDimension
 62
2
  6
CONTINUOUS
  2
*D14
 10
549.7611902838
 20
346.931954358
 11
507.1304504879
 21
349.6105257865
 70
160
 71
2
 42
80.0
  1
{\Fgdt;o}<>
  3
DIMSTYLE_2
100
AcDbAlignedDimension
 13
469.7611902838
 23
306.2624591375
 14
549.7611902838
 24
306.2624591375
100
AcDbRotatedDimension
  0
DIMENSION
  5
348
100
AcDbEntity
  8
0
100
AcDbDimension
 62
2
  6
CONTINUOUS
  2
*D15
 10
201.5119608713
 20
305.5033829294
 11
199.6722453826
 21
267.6944393308
 70
160
 71
2
 42
70.0
  1
%%c<>
  3
DIMSTYLE_7
100
AcDbAlignedDimension
 13
233.6548180141
 23
235.5033829294
 14
233.6548180141
 24
305.5033829294
 50
90.0
100
AcDbRotatedDimension
  0
DIMENSION
  5
349
100
AcDbEntity
  8
0
100
AcDbDimension
 62
2
  6
CONTINUOUS
  2
*D16
 10
239.6691037284
 20
214.0748115008
 11
214.751544793
 21
216.7533829294
 70
160
 71
3
 42
5.3
  3
DIMSTYLE_5
100
AcDbAlignedDimension
 13
234.3691037284
 23
229.7890972151
 14
239.6691037284
 24
229.7890972151
100
AcDbRotatedDimension
  0
DIMENSION
  5
34A
100
AcDbEntity
  8
0
100
AcDbDimension
 62
2
  6
CONTINUOUS
  2
*D17
 10
471.1232177482
 20
293.5708292193
 11
454.4791722827
 21
301.1992679827
 70
163
 71
3
 42
90.0
  1
     <>
  3
DIMSTYLE_6
100
AcDbDiametricDimension
 15
548.3991628194
 25
247.4359366395
  0
DIMENSION
  5
34B
100
AcDbEntity
  8
0
100
AcDbDimension
 62
2
  6
CONTINUOUS
  2
*D18
 10
474.953600784
 20
329.7906723211
 11
489.6347431181
 21
332.4676686437
 70
160
 71
1
 42
6.0
  1
M<>        
  3
DIMSTYLE_5
100
AcDbAlignedDimension
 13
480.9498700474
 23
301.9656580324
 14
474.9498699935
 24
301.9656580324
 50
179.9923177559
100
AcDbRotatedDimension
  0
DIMENSION
  5
34C
100
AcDbEntity
  8
0
100
AcDbDimension
 62
2
  6
CONTINUOUS
  2
*D19
 10
335.1691037284
 20
261.7033829294
 11
351.6820557917
 21
235.3568494149
 70
164
 71
1
 42
0.8
  1
<>
  3
DIMSTYLE_8
100
AcDbRadialDimension
 15
334.8042209291
 25
262.4153243194
  0
DIMENSION
  5
34D
100
AcDbEntity
  8
0
100
AcDbDimension
 62
2
  6
CONTINUOUS
  2
*D20
 10
314.4384151907
 20
305.5033829294
 11
312.9219394502
 21
243.9131222951
 70
160
 71
2
 42
70.0
  1
%%c<>
  3
DIMSTYLE_2
100
AcDbAlignedDimension
 13
310.152700905
 23
235.5033829294
 14
310.152700905
 24
305.5033829294
 50
90.0
100
AcDbRotatedDimension
  0
DIMENSION
  5
34E
100
AcDbEntity
  8
0
100
AcDbDimension
 62
2
  6
CONTINUOUS
  2
*D21
 10
326.3691037284
 20
355.5033829294
 11
298.5731853611
 21
358.181954358
 70
160
 71
2
 42
51.0
  3
DIMSTYLE_2
100
AcDbAlignedDimension
 13
275.3691037284
 23
301.2642750888
 14
326.3691037284
 24
306.2176686437
100
AcDbRotatedDimension
  0
DIMENSION
  5
34F
100
AcDbEntity
  8
0
100
AcDbDimension
 62
2
  6
CONTINUOUS
  2
*D22
 10
326.3691037284
 20
215.5033829294
 11
339.1537383565
 21
218.181954358
 70
160
 71
1
 42
3.0
  3
DIMSTYLE_5
100
AcDbAlignedDimension
 13
329.3691037284
 23
243.7890972151
 14
326.3691037284
 24
243.7890972151
 50
180.0
100
AcDbRotatedDimension
  0
DIMENSION
  5
350
100
AcDbEntity
  8
0
100
AcDbDimension
 62
2
  6
CONTINUOUS
  2
*D23
 10
405.2262465856
 20
296.5033829294
 11
403.6811947216
 21
268.2417842268
 70
160
 71
2
 42
52.0
  1
%%c<>
  3
DIMSTYLE_2
100
AcDbAlignedDimension
 13
331.2262465856
 23
244.5033829294
 14
331.2236015267
 24
296.5033829294
 50
90.0
100
AcDbRotatedDimension
  0
DIMENSION
  5
351
100
AcDbEntity
  8
0
100
AcDbDimension
 62
2
  6
CONTINUOUS
  2
*D24
 10
69.5593460781
 20
286.4970421571
 11
40.3357269344
 21
302.4859356081
 70
163
 71
3
 42
62.0
  1
    <>
  3
DIMSTYLE_6
100
AcDbDiametricDimension
 15
122.6706580372
 25
254.5097237016
  0
DIMENSION
  5
352
100
AcDbEntity
  8
0
100
AcDbDimension
 62
2
  6
CONTINUOUS
  2
*D25
 10
129.6942539668
 20
212.6931349596
 11
89.8785353712
 21
215.1007839676
 70
160
 71
3
 42
5.0
  1
M<>
  3
DIMSTYLE_5
100
AcDbAlignedDimension
 13
124.6179419538
 23
268.3571006617
 14
129.6179372557
 24
268.3639549383
 50
0.0785442484
100
AcDbRotatedDimension
  0
DIMENSION
  5
353
100
AcDbEntity
  8
0
100
AcDbDimension
 62
2
  6
CONTINUOUS
  2
*D26
 10
328.3691037284
 20
245.5033829294
 11
337.0596047439
 21
231.6158866958
 70
164
 71
1
 42
1.0
  1
<>
  3
DIMSTYLE_8
100
AcDbRadialDimension
 15
328.7538381821
 25
244.5803556274
  0
MTEXT
  5
354
100
AcDbEntity
  8
0
100
AcDbMText
 62
5
  6
CONTINUOUS
  7
STANDARD
 71
1
 72
1
 10
206.1125467117
 20
280.282435657
 30
0.0
 11
0.0
 21
1.0
 31
0.0
 44
0.9
  1
(for shaft diam. tol. j6/k6)
 40
3.5714285714
 41
66.3265306122
  0
MTEXT
  5
355
100
AcDbEntity
  8
0
100
AcDbMText
 62
5
  6
CONTINUOUS
  7
STANDARD
 71
1
 72
1
 10
374.9865176691
 20
231.1664682629
 30
0.0
 11
0.0
 21
1.0
 31
0.0
 44
0.9
  1
k7
 40
3.5714285714
 41
5.3571428571
  0
MTEXT
  5
356
100
AcDbEntity
  8
0
100
AcDbMText
 62
5
  6
CONTINUOUS
  7
STANDARD
 71
1
 72
1
 10
400.5729220846
 20
278.603553883
 30
0.0
 11
0.0
 21
1.0
 31
0.0
 44
0.9
  1
h7
 40
3.5714285714
 41
5.3571428571
  0
LEADER
  5
357
100
AcDbEntity
  8
0
100
AcDbLeader
 62
2
  6
CONTINUOUS
  3
STANDARD
 71
1
 72
0
 73
0
 75
0
 40
3.5714285714
 41
32.4829931973
 76
3
 10
351.03727736
 20
279.1565116132
 30
0.0
 10
372.0009123296
 20
355.5033829294
 30
0.0
 10
379.1437694725
 20
355.5033829294
 30
0.0
340
358
1001
ACAD
1000
DSTYLE
1002
{
1070
77
1070
0
1070
341
1005
213
1002
}
  0
MTEXT
  5
358
102
{ACAD_REACTORS
330
357
102
}
100
AcDbEntity
  8
0
100
AcDbMText
 62
5
  6
CONTINUOUS
  7
STANDARD
 71
1
 72
1
 10
379.1437694725
 20
357.2890972151
 30
0.0
 11
1.0
 21
0.0
 31
0.0
 44
0.9
  1
Key DIN 6885\PA 5x5x25
 40
3.5714285714
 41
32.4829931973
  0
LEADER
  5
359
100
AcDbEntity
  8
0
100
AcDbLeader
 62
2
  6
CONTINUOUS
  3
STANDARD
 71
1
 72
0
 73
0
 75
0
 40
3.5714285714
 41
49.574829932
 76
4
 10
362.3684561268
 20
270.5003984698
 30
0.0
 10
374.5826890994
 20
269.2064469296
 30
0.0
 10
357.7197143143
 20
194.0748115008
 30
0.0
 10
350.5768571714
 20
194.0748115008
 30
0.0
340
35A
1001
ACAD
1000
DSTYLE
1002
{
1070
77
1070
0
1002
}
  0
MTEXT
  5
35A
102
{ACAD_REACTORS
330
359
102
}
100
AcDbEntity
  8
0
100
AcDbMText
 62
5
  6
CONTINUOUS
  7
STANDARD
 71
3
 72
1
 10
350.5768571714
 20
195.8605257865
 30
0.0
 11
1.0
 21
0.0
 31
0.0
 44
0.9
  1
Centre bore DIN 332\PDR M5x12,5
 40
3.5714285714
 41
49.574829932
  0
MTEXT
  5
35B
100
AcDbEntity
  8
0
100
AcDbMText
 62
5
  6
CONTINUOUS
  7
STANDARD
 71
1
 72
1
 10
32.9248026354
 20
313.7155112735
 30
0.0
 11
0.8191520443
 21
-0.5735764364
 31
0.0
 44
0.9
  1
pcd.
 40
3.5714285714
 41
9.4387755102
  0
MTEXT
  5
35C
100
AcDbEntity
  8
0
100
AcDbMText
 62
5
  6
CONTINUOUS
  7
STANDARD
 71
1
 72
1
 10
97.5702725369
 20
217.2710329055
 30
0.0
 11
1.0
 21
0.0
 31
0.0
 44
0.9
  1
x8 deep
 40
3.5714285714
 41
18.3673469388
  0
MTEXT
  5
35D
100
AcDbEntity
  8
0
100
AcDbMText
 62
5
  6
CONTINUOUS
  7
STANDARD
 71
1
 72
1
 10
494.6422393313
 20
334.1713153134
 30
0.0
 11
1.0
 21
0.0
 31
0.0
 44
0.9
  1
x15 deep
 40
3.5714285714
 41
20.1530612245
  0
MTEXT
  5
35E
100
AcDbEntity
  8
0
100
AcDbMText
 62
5
  6
CONTINUOUS
  7
STANDARD
 71
1
 72
1
 10
445.7965263039
 20
314.6463590408
 30
0.0
 11
0.8746197071
 21
-0.4848096202
 31
0.0
 44
0.9
  1
pcd.
 40
3.5714285714
 41
9.4387755102
  0
LINE
  5
35F
100
AcDbEntity
  8
0
100
AcDbLine
 62
2
  6
CONTINUOUS
 10
6.8474462106
 20
417.2100564984
 11
6.8474462106
 21
7.1930598132
  0
LINE
  5
360
100
AcDbEntity
  8
0
100
AcDbLine
 62
2
  6
CONTINUOUS
 10
6.8474462106
 20
7.1930598132
 11
593.0154400054
 21
7.1930598132
  0
LINE
  5
361
100
AcDbEntity
  8
0
100
AcDbLine
 62
2
  6
CONTINUOUS
 10
593.0154400054
 20
417.2100564984
 11
6.8474462106
 21
417.2100564984
  0
LINE
  5
362
100
AcDbEntity
  8
0
100
AcDbLine
 62
2
  6
CONTINUOUS
 10
593.0154400054
 20
7.1930598132
 11
593.0154400054
 21
417.2100564984
  0
LINE
  5
363
100
AcDbEntity
  8
0
100
AcDbLine
 62
7
  6
CONTINUOUS
 10
234.3691037284
 20
230.5033829294
 11
234.3691037284
 21
310.5033829294
  0
LINE
  5
364
100
AcDbEntity
  8
BLATT2_3D_ANSICHT
100
AcDbLine
 62
2
  6
CENTER
 10
239.6691037284
 20
305.5033829294
 11
239.6691037284
 21
235.5033829294
  0
LINE
  5
365
100
AcDbEntity
  8
BEZUGSACHSEN
100
AcDbLine
 62
2
  6
CENTER
 10
255.3691037284
 20
256.5033829294
 11
255.3691037284
 21
247.2176686437
  0
LINE
  5
366
100
AcDbEntity
  8
BEZUGSACHSEN
100
AcDbLine
 62
2
  6
CENTER
 10
255.3691037284
 20
256.5033829294
 11
255.3691037284
 21
265.7890972151
  0
LINE
  5
367
100
AcDbEntity
  8
0
100
AcDbLine
 62
7
  6
CONTINUOUS
 10
253.0597026517
 20
256.5033829294
 11
254.2144031901
 21
254.5033829294
  0
LINE
  5
368
100
AcDbEntity
  8
0
100
AcDbLine
 62
7
  6
CONTINUOUS
 10
257.6785048052
 20
256.5033829294
 11
256.5238042668
 21
258.5033829294
  0
LINE
  5
369
100
AcDbEntity
  8
FASEN
100
AcDbLine
 62
7
  6
CONTINUOUS
 10
275.3691037284
 20
300.4033829294
 11
275.4691037276
 21
300.5033829286
  0
LINE
  5
36A
100
AcDbEntity
  8
0
100
AcDbLine
 62
7
  6
CONTINUOUS
 10
265.3691037284
 20
230.5033829294
 11
234.3691037284
 21
230.5033829294
  0
LINE
  5
36B
100
AcDbEntity
  8
0
100
AcDbLine
 62
7
  6
CONTINUOUS
 10
275.3691037284
 20
230.5533829294
 11
265.3691037284
 21
230.5533829294
  0
LINE
  5
36C
100
AcDbEntity
  8
FASEN
100
AcDbLine
 62
7
  6
CONTINUOUS
 10
275.3691037284
 20
240.6033829294
 11
275.469103728
 21
240.5033829298
  0
LINE
  5
36D
100
AcDbEntity
  8
0
100
AcDbLine
 62
7
  6
CONTINUOUS
 10
265.3691037284
 20
230.5033829294
 11
265.3691037284
 21
310.5033829294
  0
LINE
  5
36E
100
AcDbEntity
  8
0
100
AcDbLine
 62
7
  6
CONTINUOUS
 10
254.2144031901
 20
258.5033829294
 11
253.0597026517
 21
256.5033829294
  0
LINE
  5
36F
100
AcDbEntity
  8
0
100
AcDbLine
 62
7
  6
CONTINUOUS
 10
293.0098437621
 20
305.5033829294
 11
285.8691037284
 21
300.5033829294
  0
LINE
  5
370
100
AcDbEntity
  8
0
100
AcDbLine
 62
7
  6
CONTINUOUS
 10
265.3691037284
 20
234.9752250824
 11
234.3691037284
 21
234.9752250824
  0
LINE
  5
371
100
AcDbEntity
  8
0
100
AcDbLine
 62
7
  6
CONTINUOUS
 10
275.3691037284
 20
234.99422918
 11
265.3691037284
 21
234.99422918
  0
LINE
  5
372
100
AcDbEntity
  8
0
100
AcDbLine
 62
7
  6
CONTINUOUS
 10
326.3691037284
 20
235.5033829294
 11
293.0098437621
 21
235.5033829294
  0
LINE
  5
373
100
AcDbEntity
  8
BLATT2_3D_ANSICHT
100
AcDbLine
 62
2
  6
CENTER
 10
239.6691037284
 20
235.5033829294
 11
234.3691037284
 21
235.5033829294
  0
LINE
  5
374
100
AcDbEntity
  8
0
100
AcDbLine
 62
7
  6
CONTINUOUS
 10
293.0098437621
 20
235.5033829294
 11
285.8691037284
 21
240.5033829294
  0
LINE
  5
375
100
AcDbEntity
  8
0
100
AcDbLine
 62
7
  6
CONTINUOUS
 10
256.5238042668
 20
254.5033829294
 11
257.6785048052
 21
256.5033829294
  0
LINE
  5
376
100
AcDbEntity
  8
0
100
AcDbLine
 62
7
  6
CONTINUOUS
 10
285.8691037284
 20
240.5033829294
 11
284.7191037284
 21
240.5033829294
  0
LINE
  5
377
100
AcDbEntity
  8
0
100
AcDbLine
 62
7
  6
CONTINUOUS
 10
275.7191037284
 20
240.5033829294
 11
275.4691037284
 21
240.5033829294
  0
LINE
  5
378
100
AcDbEntity
  8
0
100
AcDbLine
 62
7
  6
CONTINUOUS
 10
328.3691037284
 20
244.5033829294
 11
326.3691037284
 21
244.5033829294
  0
LINE
  5
379
100
AcDbEntity
  8
BLATT2_3D_ANSICHT
100
AcDbLine
 62
2
  6
CENTER
 10
274.3691037284
 20
280.0033829294
 11
274.3691037284
 21
261.0033829294
  0
LINE
  5
37A
100
AcDbEntity
  8
0
100
AcDbLine
 62
7
  6
CONTINUOUS
 10
275.3691037284
 20
310.4533829294
 11
275.3691037284
 21
230.5533829294
  0
LINE
  5
37B
100
AcDbEntity
  8
FASEN
100
AcDbLine
 62
7
  6
CONTINUOUS
 10
275.4691037284
 20
240.5033829294
 11
275.4691037284
 21
300.5033829294
  0
LINE
  5
37C
100
AcDbEntity
  8
0
100
AcDbLine
 62
7
  6
CONTINUOUS
 10
279.4974158919
 20
271.7533829294
 11
278.7757280555
 21
270.5033829294
  0
LINE
  5
37D
100
AcDbEntity
  8
0
100
AcDbLine
 62
7
  6
CONTINUOUS
 10
329.3691037284
 20
253.5033829294
 11
330.8691037284
 21
253.5033829294
  0
LINE
  5
37E
100
AcDbEntity
  8
0
100
AcDbLine
 62
7
  6
CONTINUOUS
 10
254.2144031901
 20
254.5033829294
 11
256.5238042668
 21
254.5033829294
  0
LINE
  5
37F
100
AcDbEntity
  8
0
100
AcDbLine
 62
7
  6
CONTINUOUS
 10
330.8691037284
 20
255.5033829294
 11
334.3691037284
 21
255.5033829294
  0
LINE
  5
380
100
AcDbEntity
  8
0
100
AcDbLine
 62
7
  6
CONTINUOUS
 10
278.7757280555
 20
270.5033829294
 11
279.4974158919
 21
269.2533829294
  0
LINE
  5
381
100
AcDbEntity
  8
0
100
AcDbLine
 62
7
  6
CONTINUOUS
 10
285.8691037284
 20
300.5033829294
 11
285.8691037284
 21
240.5033829294
  0
LINE
  5
382
100
AcDbEntity
  8
0
100
AcDbLine
 62
7
  6
CONTINUOUS
 10
280.9407915649
 20
269.2533829294
 11
281.6624794014
 21
270.5033829294
  0
LINE
  5
383
100
AcDbEntity
  8
BEZUGSACHSEN
100
AcDbLine
 62
2
  6
CENTER
 10
255.3691037284
 20
256.5033829294
 11
246.0833894427
 21
256.5033829294
  0
LINE
  5
384
100
AcDbEntity
  8
BEZUGSACHSEN
100
AcDbLine
 62
2
  6
CENTER
 10
255.3691037284
 20
256.5033829294
 11
264.6548180141
 21
256.5033829294
  0
LINE
  5
385
100
AcDbEntity
  8
0
100
AcDbLine
 62
7
  6
CONTINUOUS
 10
256.5238042668
 20
258.5033829294
 11
254.2144031901
 21
258.5033829294
  0
LINE
  5
386
100
AcDbEntity
  8
0
100
AcDbLine
 62
7
  6
CONTINUOUS
 10
281.6624794014
 20
270.5033829294
 11
280.9407915649
 21
271.7533829294
  0
LINE
  5
387
100
AcDbEntity
  8
0
100
AcDbLine
 62
7
  6
CONTINUOUS
 10
293.0098437621
 20
305.5033829294
 11
293.0098437621
 21
235.5033829294
  0
LINE
  5
388
100
AcDbEntity
  8
BLATT2_3D_ANSICHT
100
AcDbLine
 62
2
  6
CENTER
 10
274.3691037284
 20
261.0033829294
 11
239.6691037284
 21
261.0033829294
  0
LINE
  5
389
100
AcDbEntity
  8
0
100
AcDbLine
 62
7
  6
CONTINUOUS
 10
335.1691037284
 20
262.5033829294
 11
361.8691037284
 21
262.5033829294
  0
LINE
  5
38A
100
AcDbEntity
  8
0
100
AcDbLine
 62
7
  6
CONTINUOUS
 10
279.4974158919
 20
269.2533829294
 11
280.9407915649
 21
269.2533829294
  0
LINE
  5
38B
100
AcDbEntity
  8
TEIL_STARTBEZUEGE
100
AcDbLine
 62
2
  6
CENTER
 10
230.0833894427
 20
270.5033829294
 11
366.6548180145
 21
270.5033829294
  0
LINE
  5
38C
100
AcDbEntity
  8
0
100
AcDbLine
 62
7
  6
CONTINUOUS
 10
280.9407915649
 20
271.7533829294
 11
279.4974158919
 21
271.7533829294
  0
LINE
  5
38D
100
AcDbEntity
  8
BEZUGSACHSEN
100
AcDbLine
 62
7
  6
CONTINUOUS
 10
337.8691037284
 20
278.1027250062
 11
357.8691037284
 21
278.1027250062
  0
LINE
  5
38E
100
AcDbEntity
  8
0
100
AcDbLine
 62
7
  6
CONTINUOUS
 10
335.1691037284
 20
278.5033829294
 11
335.3695191856
 21
278.5033829294
  0
LINE
  5
38F
100
AcDbEntity
  8
0
100
AcDbLine
 62
7
  6
CONTINUOUS
 10
360.3689296475
 20
278.5033829294
 11
361.8691037284
 21
278.5033829294
  0
LINE
  5
390
100
AcDbEntity
  8
BLATT2_3D_ANSICHT
100
AcDbLine
 62
2
  6
CENTER
 10
274.3691037284
 20
280.0033829294
 11
239.6691037284
 21
280.0033829294
  0
LINE
  5
391
100
AcDbEntity
  8
BEZUGSACHSEN
100
AcDbLine
 62
7
  6
CONTINUOUS
 10
335.3693025959
 20
280.5033829294
 11
360.368904861
 21
280.5033829294
  0
LINE
  5
392
100
AcDbEntity
  8
0
100
AcDbLine
 62
7
  6
CONTINUOUS
 10
330.8691037284
 20
285.5033829294
 11
334.3691037284
 21
285.5033829294
  0
LINE
  5
393
100
AcDbEntity
  8
0
100
AcDbLine
 62
7
  6
CONTINUOUS
 10
329.3691037284
 20
287.5033829294
 11
330.8691037284
 21
287.5033829294
  0
LINE
  5
394
100
AcDbEntity
  8
0
100
AcDbLine
 62
7
  6
CONTINUOUS
 10
328.3691037284
 20
296.5033829294
 11
326.3691037284
 21
296.5033829294
  0
LINE
  5
395
100
AcDbEntity
  8
0
100
AcDbLine
 62
7
  6
CONTINUOUS
 10
326.3691037284
 20
305.5033829294
 11
326.3691037284
 21
235.5033829294
  0
LINE
  5
396
100
AcDbEntity
  8
RUNDUNGEN
100
AcDbLine
 62
9
  6
CONTINUOUS
 10
328.3691037284
 20
244.5033829294
 11
328.3691037284
 21
296.5033829294
  0
LINE
  5
397
100
AcDbEntity
  8
RUNDUNGEN
100
AcDbLine
 62
7
  6
CONTINUOUS
 10
329.3691037284
 20
245.5033829294
 11
329.3691037284
 21
295.5033829294
  0
LINE
  5
398
100
AcDbEntity
  8
0
100
AcDbLine
 62
7
  6
CONTINUOUS
 10
285.8691037284
 20
300.5033829294
 11
284.7191037284
 21
300.5033829294
  0
LINE
  5
399
100
AcDbEntity
  8
0
100
AcDbLine
 62
7
  6
CONTINUOUS
 10
275.7191037284
 20
300.5033829294
 11
275.4691037284
 21
300.5033829294
  0
LINE
  5
39A
100
AcDbEntity
  8
0
100
AcDbLine
 62
7
  6
CONTINUOUS
 10
330.8691037284
 20
253.503521405
 11
330.8691037284
 21
287.5032444538
  0
LINE
  5
39B
100
AcDbEntity
  8
0
100
AcDbLine
 62
7
  6
CONTINUOUS
 10
334.3691037284
 20
255.5035051137
 11
334.3691037284
 21
285.5032607451
  0
LINE
  5
39C
100
AcDbEntity
  8
RUNDUNGEN
100
AcDbLine
 62
9
  6
CONTINUOUS
 10
335.1691037284
 20
278.5033829294
 11
335.1691037284
 21
262.5033829294
  0
LINE
  5
39D
100
AcDbEntity
  8
BEZUGSACHSEN
100
AcDbLine
 62
7
  6
CONTINUOUS
 10
335.3691037284
 20
278.5032554935
 11
335.3691037284
 21
280.5033829294
  0
LINE
  5
39E
100
AcDbEntity
  8
0
100
AcDbLine
 62
7
  6
CONTINUOUS
 10
326.3691037284
 20
305.5033829294
 11
293.0098437621
 21
305.5033829294
  0
LINE
  5
39F
100
AcDbEntity
  8
BLATT2_3D_ANSICHT
100
AcDbLine
 62
2
  6
CENTER
 10
234.3691037284
 20
305.5033829294
 11
239.6691037284
 21
305.5033829294
  0
LINE
  5
3A0
100
AcDbEntity
  8
0
100
AcDbLine
 62
7
  6
CONTINUOUS
 10
275.3691037284
 20
306.0125366788
 11
265.3691037284
 21
306.0125366788
  0
LINE
  5
3A1
100
AcDbEntity
  8
0
100
AcDbLine
 62
7
  6
CONTINUOUS
 10
265.3691037284
 20
306.0315407764
 11
234.3691037284
 21
306.0315407764
  0
LINE
  5
3A2
100
AcDbEntity
  8
BEZUGSACHSEN
100
AcDbLine
 62
9
  6
CONTINUOUS
 10
337.8691037284
 20
278.1027250062
 11
337.8691037284
 21
280.5033829294
  0
LINE
  5
3A3
100
AcDbEntity
  8
0
100
AcDbLine
 62
7
  6
CONTINUOUS
 10
275.3691037284
 20
310.4533829294
 11
265.3691037284
 21
310.4533829294
  0
LINE
  5
3A4
100
AcDbEntity
  8
0
100
AcDbLine
 62
7
  6
CONTINUOUS
 10
265.3691037284
 20
310.5033829294
 11
234.3691037284
 21
310.5033829294
  0
LINE
  5
3A5
100
AcDbEntity
  8
FASEN
100
AcDbLine
 62
7
  6
CONTINUOUS
 10
362.3691037284
 20
263.0033829294
 11
361.8691037284
 21
262.5033829294
  0
LINE
  5
3A6
100
AcDbEntity
  8
FASEN
100
AcDbLine
 62
7
  6
CONTINUOUS
 10
362.3691037284
 20
278.0033829294
 11
361.8691037284
 21
278.5033829294
  0
LINE
  5
3A7
100
AcDbEntity
  8
BEZUGSACHSEN
100
AcDbLine
 62
9
  6
CONTINUOUS
 10
357.8691037284
 20
278.1027250062
 11
357.8691037284
 21
280.5033829294
  0
LINE
  5
3A8
100
AcDbEntity
  8
BEZUGSACHSEN
100
AcDbLine
 62
7
  6
CONTINUOUS
 10
360.3691037284
 20
278.5033295444
 11
360.3691037284
 21
280.5033829294
  0
LINE
  5
3A9
100
AcDbEntity
  8
FASEN
100
AcDbLine
 62
7
  6
CONTINUOUS
 10
361.8691037284
 20
262.5033829294
 11
361.8691037284
 21
278.5033829294
  0
LINE
  5
3AA
100
AcDbEntity
  8
FASEN
100
AcDbLine
 62
7
  6
CONTINUOUS
 10
362.3691037284
 20
263.0033829294
 11
362.3691037284
 21
278.0033829294
  0
LINE
  5
3AB
100
AcDbEntity
  8
0
100
AcDbLine
 62
7
  6
CONTINUOUS
 10
56.1150020577
 20
234.9752250824
 11
56.1150020577
 21
306.0315407764
  0
LINE
  5
3AC
100
AcDbEntity
  8
0
100
AcDbLine
 62
7
  6
CONTINUOUS
 10
56.1650020577
 20
306.0125366788
 11
56.1650020577
 21
234.99422918
  0
LINE
  5
3AD
100
AcDbEntity
  8
0
100
AcDbLine
 62
7
  6
CONTINUOUS
 10
131.6431599046
 20
230.5033829294
 11
60.5868442107
 21
230.5033829294
  0
LINE
  5
3AE
100
AcDbEntity
  8
0
100
AcDbLine
 62
7
  6
CONTINUOUS
 10
60.6058483082
 20
230.5533829294
 11
131.6241558071
 21
230.5533829294
  0
LINE
  5
3AF
100
AcDbEntity
  8
BEZUGSACHSEN
100
AcDbLine
 62
7
  6
CONTINUOUS
 10
93.6150020577
 20
278.1027250062
 11
93.6150020577
 21
280.5033829294
  0
LINE
  5
3B0
100
AcDbEntity
  8
TEIL_STARTBEZUEGE
100
AcDbLine
 62
2
  6
CENTER
 10
96.1150020577
 20
222.6462400723
 11
96.1150020577
 21
318.3605257865
  0
LINE
  5
3B1
100
AcDbEntity
  8
TEIL_STARTBEZUEGE
100
AcDbLine
 62
2
  6
CENTER
 10
143.9721449148
 20
270.5033829294
 11
48.2578592005
 21
270.5033829294
  0
LINE
  5
3B2
100
AcDbEntity
  8
BEZUGSACHSEN
100
AcDbLine
 62
7
  6
CONTINUOUS
 10
98.6150020577
 20
278.1027250062
 11
98.6150020577
 21
280.5033829294
  0
LINE
  5
3B3
100
AcDbEntity
  8
BEZUGSACHSEN
100
AcDbLine
 62
7
  6
CONTINUOUS
 10
93.6150020577
 20
280.5033829294
 11
98.6150020577
 21
280.5033829294
  0
LINE
  5
3B4
100
AcDbEntity
  8
0
100
AcDbLine
 62
7
  6
CONTINUOUS
 10
136.0650020577
 20
234.99422918
 11
136.0650020577
 21
306.0125366788
  0
LINE
  5
3B5
100
AcDbEntity
  8
0
100
AcDbLine
 62
7
  6
CONTINUOUS
 10
136.1150020577
 20
306.0315407764
 11
136.1150020577
 21
234.9752250824
  0
LINE
  5
3B6
100
AcDbEntity
  8
0
100
AcDbLine
 62
7
  6
CONTINUOUS
 10
131.6241558071
 20
310.4533829294
 11
60.6058483082
 21
310.4533829294
  0
LINE
  5
3B7
100
AcDbEntity
  8
0
100
AcDbLine
 62
7
  6
CONTINUOUS
 10
60.5868442107
 20
310.5033829294
 11
131.6431599046
 21
310.5033829294
  0
LINE
  5
3B8
100
AcDbEntity
  8
0
100
AcDbLine
 62
7
  6
CONTINUOUS
 10
469.7611902838
 20
306.0315407764
 11
469.7611902838
 21
234.9752250824
  0
LINE
  5
3B9
100
AcDbEntity
  8
0
100
AcDbLine
 62
7
  6
CONTINUOUS
 10
474.2330324368
 20
230.5033829294
 11
545.2893481308
 21
230.5033829294
  0
LINE
  5
3BA
100
AcDbEntity
  8
BEZUGSACHSEN
100
AcDbLine
 62
2
  6
CENTER
 10
477.9413851304
 20
302.3231880828
 11
477.9413851304
 21
298.606617003
  0
LINE
  5
3BB
100
AcDbEntity
  8
BEZUGSACHSEN
100
AcDbLine
 62
2
  6
CENTER
 10
477.9413851304
 20
238.683577776
 11
477.9413851304
 21
234.9068345775
  0
LINE
  5
3BC
100
AcDbEntity
  8
BEZUGSACHSEN
100
AcDbLine
 62
2
  6
CENTER
 10
477.9413851304
 20
238.683577776
 11
477.9413851304
 21
242.4330691
  0
LINE
  5
3BD
100
AcDbEntity
  8
BEZUGSACHSEN
100
AcDbLine
 62
2
  6
CENTER
 10
477.9413851304
 20
302.3231880828
 11
477.9413851304
 21
306.0124317731
  0
LINE
  5
3BE
100
AcDbEntity
  8
0
100
AcDbLine
 62
7
  6
CONTINUOUS
 10
479.5448043084
 20
260.4662556314
 11
479.5448043084
 21
257.5795042855
  0
LINE
  5
3BF
100
AcDbEntity
  8
BEZUGSACHSEN
100
AcDbLine
 62
2
  6
CENTER
 10
541.5809954372
 20
238.683577776
 11
537.8453941274
 21
238.683577776
  0
LINE
  5
3C0
100
AcDbEntity
  8
BEZUGSACHSEN
100
AcDbLine
 62
2
  6
CENTER
 10
477.9413851304
 20
238.683577776
 11
474.181133471
 21
238.683577776
  0
LINE
  5
3C1
100
AcDbEntity
  8
BEZUGSACHSEN
100
AcDbLine
 62
2
  6
CENTER
 10
477.9413851304
 20
238.683577776
 11
481.667228076
 21
238.683577776
  0
LINE
  5
3C2
100
AcDbEntity
  8
BEZUGSACHSEN
100
AcDbLine
 62
2
  6
CENTER
 10
541.5809954372
 20
238.683577776
 11
545.2311389389
 21
238.683577776
  0
LINE
  5
3C3
100
AcDbEntity
  8
0
100
AcDbLine
 62
7
  6
CONTINUOUS
 10
519.7983175818
 20
240.2869969541
 11
522.6850689277
 21
240.2869969541
  0
LINE
  5
3C4
100
AcDbEntity
  8
0
100
AcDbLine
 62
7
  6
CONTINUOUS
 10
484.5448043084
 20
257.5795042855
 11
484.5448043084
 21
260.4662556314
  0
LINE
  5
3C5
100
AcDbEntity
  8
0
100
AcDbLine
 62
7
  6
CONTINUOUS
 10
496.8373116399
 20
300.7197689047
 11
495.3939359669
 21
298.2197689047
  0
LINE
  5
3C6
100
AcDbEntity
  8
0
100
AcDbLine
 62
7
  6
CONTINUOUS
 10
522.6850689277
 20
245.2869969541
 11
519.7983175818
 21
245.2869969541
  0
LINE
  5
3C7
100
AcDbEntity
  8
0
100
AcDbLine
 62
7
  6
CONTINUOUS
 10
479.5448043084
 20
257.5795042855
 11
482.0448043084
 21
256.1361286125
  0
LINE
  5
3C8
100
AcDbEntity
  8
0
100
AcDbLine
 62
7
  6
CONTINUOUS
 10
499.7240629858
 20
295.7197689047
 11
501.1674386588
 21
298.2197689047
  0
LINE
  5
3C9
100
AcDbEntity
  8
0
100
AcDbLine
 62
7
  6
CONTINUOUS
 10
484.5448043084
 20
260.4662556314
 11
482.0448043084
 21
261.9096313044
  0
LINE
  5
3CA
100
AcDbEntity
  8
0
100
AcDbLine
 62
7
  6
CONTINUOUS
 10
517.9013382311
 20
252.2533829294
 11
521.2611902838
 21
252.2533829294
  0
LINE
  5
3CB
100
AcDbEntity
  8
0
100
AcDbLine
 62
7
  6
CONTINUOUS
 10
482.0448043084
 20
261.9096313044
 11
479.5448043084
 21
260.4662556314
  0
LINE
  5
3CC
100
AcDbEntity
  8
0
100
AcDbLine
 62
7
  6
CONTINUOUS
 10
518.3549419088
 20
242.7869969541
 11
519.7983175818
 21
240.2869969541
  0
LINE
  5
3CD
100
AcDbEntity
  8
0
100
AcDbLine
 62
7
  6
CONTINUOUS
 10
509.0111902838
 20
261.033034467
 11
509.0111902838
 21
250.5174503767
  0
LINE
  5
3CE
100
AcDbEntity
  8
TEIL_STARTBEZUEGE
100
AcDbLine
 62
2
  6
CENTER
 10
509.7611902838
 20
222.6462400723
 11
509.7611902838
 21
318.3605257865
  0
LINE
  5
3CF
100
AcDbEntity
  8
0
100
AcDbLine
 62
7
  6
CONTINUOUS
 10
482.0448043084
 20
256.1361286125
 11
484.5448043084
 21
257.5795042855
  0
LINE
  5
3D0
100
AcDbEntity
  8
TEIL_STARTBEZUEGE
100
AcDbLine
 62
2
  6
CENTER
 10
461.9040474266
 20
270.5033829294
 11
557.6183331409
 21
270.5033829294
  0
LINE
  5
3D1
100
AcDbEntity
  8
0
100
AcDbLine
 62
7
  6
CONTINUOUS
 10
524.1284446007
 20
242.7869969541
 11
522.6850689277
 21
245.2869969541
  0
LINE
  5
3D2
100
AcDbEntity
  8
0
100
AcDbLine
 62
7
  6
CONTINUOUS
 10
510.5111902838
 20
261.033034467
 11
510.5111902838
 21
250.5174503767
  0
LINE
  5
3D3
100
AcDbEntity
  8
0
100
AcDbLine
 62
7
  6
CONTINUOUS
 10
537.4775762591
 20
284.8706372463
 11
534.9775762591
 21
283.4272615733
  0
LINE
  5
3D4
100
AcDbEntity
  8
0
100
AcDbLine
 62
7
  6
CONTINUOUS
 10
495.3939359669
 20
298.2197689047
 11
496.8373116399
 21
295.7197689047
  0
LINE
  5
3D5
100
AcDbEntity
  8
0
100
AcDbLine
 62
7
  6
CONTINUOUS
 10
537.4775762591
 20
279.0971345544
 11
539.9775762591
 21
280.5405102274
  0
LINE
  5
3D6
100
AcDbEntity
  8
0
100
AcDbLine
 62
7
  6
CONTINUOUS
 10
501.1674386588
 20
298.2197689047
 11
499.7240629858
 21
300.7197689047
  0
LINE
  5
3D7
100
AcDbEntity
  8
RUNDUNGEN
100
AcDbLine
 62
9
  6
CONTINUOUS
 10
521.2611902838
 20
254.1646246177
 11
521.2611902838
 21
252.2533829294
  0
LINE
  5
3D8
100
AcDbEntity
  8
RUNDUNGEN
100
AcDbLine
 62
7
  6
CONTINUOUS
 10
521.7611902838
 20
254.5172628551
 11
521.7611902838
 21
252.7533829294
  0
LINE
  5
3D9
100
AcDbEntity
  8
0
100
AcDbLine
 62
7
  6
CONTINUOUS
 10
519.7983175818
 20
245.2869969541
 11
518.3549419088
 21
242.7869969541
  0
LINE
  5
3DA
100
AcDbEntity
  8
0
100
AcDbLine
 62
7
  6
CONTINUOUS
 10
534.9775762591
 20
280.5405102274
 11
537.4775762591
 21
279.0971345544
  0
LINE
  5
3DB
100
AcDbEntity
  8
0
100
AcDbLine
 62
7
  6
CONTINUOUS
 10
534.9775762591
 20
283.4272615733
 11
534.9775762591
 21
280.5405102274
  0
LINE
  5
3DC
100
AcDbEntity
  8
0
100
AcDbLine
 62
7
  6
CONTINUOUS
 10
496.8373116399
 20
295.7197689047
 11
499.7240629858
 21
295.7197689047
  0
LINE
  5
3DD
100
AcDbEntity
  8
0
100
AcDbLine
 62
7
  6
CONTINUOUS
 10
539.9775762591
 20
280.5405102274
 11
539.9775762591
 21
283.4272615733
  0
LINE
  5
3DE
100
AcDbEntity
  8
0
100
AcDbLine
 62
7
  6
CONTINUOUS
 10
522.6850689277
 20
240.2869969541
 11
524.1284446007
 21
242.7869969541
  0
LINE
  5
3DF
100
AcDbEntity
  8
0
100
AcDbLine
 62
7
  6
CONTINUOUS
 10
499.7240629858
 20
300.7197689047
 11
496.8373116399
 21
300.7197689047
  0
LINE
  5
3E0
100
AcDbEntity
  8
0
100
AcDbLine
 62
7
  6
CONTINUOUS
 10
539.9775762591
 20
283.4272615733
 11
537.4775762591
 21
284.8706372463
  0
LINE
  5
3E1
100
AcDbEntity
  8
BEZUGSACHSEN
100
AcDbLine
 62
2
  6
CENTER
 10
541.5809954372
 20
302.3231880828
 11
541.5809954372
 21
298.5888463187
  0
LINE
  5
3E2
100
AcDbEntity
  8
BEZUGSACHSEN
100
AcDbLine
 62
2
  6
CENTER
 10
541.5809954372
 20
238.683577776
 11
541.5809954372
 21
235.081418964
  0
LINE
  5
3E3
100
AcDbEntity
  8
BEZUGSACHSEN
100
AcDbLine
 62
2
  6
CENTER
 10
541.5809954372
 20
238.683577776
 11
541.5809954372
 21
242.4069538992
  0
LINE
  5
3E4
100
AcDbEntity
  8
BEZUGSACHSEN
100
AcDbLine
 62
2
  6
CENTER
 10
541.5809954372
 20
302.3231880828
 11
541.5809954372
 21
305.9896435992
  0
LINE
  5
3E5
100
AcDbEntity
  8
BEZUGSACHSEN
100
AcDbLine
 62
2
  6
CENTER
 10
541.5809954372
 20
302.3231880828
 11
537.8129629655
 21
302.3231880828
  0
LINE
  5
3E6
100
AcDbEntity
  8
BEZUGSACHSEN
100
AcDbLine
 62
2
  6
CENTER
 10
477.9413851304
 20
302.3231880828
 11
474.2990266398
 21
302.3231880828
  0
LINE
  5
3E7
100
AcDbEntity
  8
BEZUGSACHSEN
100
AcDbLine
 62
2
  6
CENTER
 10
477.9413851304
 20
302.3231880828
 11
481.6245615751
 21
302.3231880828
  0
LINE
  5
3E8
100
AcDbEntity
  8
BEZUGSACHSEN
100
AcDbLine
 62
2
  6
CENTER
 10
541.5809954372
 20
302.3231880828
 11
545.2639351428
 21
302.3231880828
  0
LINE
  5
3E9
100
AcDbEntity
  8
0
100
AcDbLine
 62
7
  6
CONTINUOUS
 10
549.7611902838
 20
234.9752250824
 11
549.7611902838
 21
306.0315407764
  0
LINE
  5
3EA
100
AcDbEntity
  8
0
100
AcDbLine
 62
7
  6
CONTINUOUS
 10
545.2893481308
 20
310.5033829294
 11
474.2330324368
 21
310.5033829294
  0
ARC
  5
3EB
100
AcDbEntity
  8
BEZUGSACHSEN
100
AcDbCircle
 62
7
  6
CONTINUOUS
 10
280.2993011556
 20
209.9958164236
 40
30.8494703775
100
AcDbArc
 50
92.6977554903
 51
98.5382272008
  0
ARC
  5
3EC
100
AcDbEntity
  8
BEZUGSACHSEN
100
AcDbCircle
 62
7
  6
CONTINUOUS
 10
280.1391992491
 20
331.0088611923
 40
30.8473617849
100
AcDbArc
 50
272.6793913572
 51
278.538264978
  0
ARC
  5
3ED
100
AcDbEntity
  8
BEZUGSACHSEN
100
AcDbCircle
 62
7
  6
CONTINUOUS
 10
280.2692144661
 20
330.702519101
 40
30.5399956325
100
AcDbArc
 50
261.431681857
 51
267.2041455461
  0
ARC
  5
3EE
100
AcDbEntity
  8
BEZUGSACHSEN
100
AcDbCircle
 62
7
  6
CONTINUOUS
 10
280.1692936446
 20
210.3069316289
 40
30.5372959337
100
AcDbArc
 50
81.4314891338
 51
87.2224492033
  0
ARC
  5
3EF
100
AcDbEntity
  8
BEZUGSACHSEN
100
AcDbCircle
 62
7
  6
CONTINUOUS
 10
280.2261396813
 20
330.0713176527
 40
29.907446945
100
AcDbArc
 50
267.2275851444
 51
268.0975786113
  0
ARC
  5
3F0
100
AcDbEntity
  8
BEZUGSACHSEN
100
AcDbCircle
 62
7
  6
CONTINUOUS
 10
280.2123251311
 20
210.94096853
 40
29.9019211728
100
AcDbArc
 50
87.2459341852
 51
88.1236425966
  0
ARC
  5
3F1
100
AcDbEntity
  8
BEZUGSACHSEN
100
AcDbCircle
 62
7
  6
CONTINUOUS
 10
280.2217036619
 20
211.0445199147
 40
29.7982901362
100
AcDbArc
 50
91.7600890025
 51
92.6436254937
  0
ARC
  5
3F2
100
AcDbEntity
  8
BEZUGSACHSEN
100
AcDbCircle
 62
7
  6
CONTINUOUS
 10
280.2166131488
 20
329.9596181972
 40
29.7956604115
100
AcDbArc
 50
271.7392174792
 51
272.6250098525
  0
ARC
  5
3F3
100
AcDbEntity
  8
BEZUGSACHSEN
100
AcDbCircle
 62
7
  6
CONTINUOUS
 10
280.2191545131
 20
211.2026408868
 40
29.6401655599
100
AcDbArc
 50
88.1202749317
 51
91.7645517528
  0
ARC
  5
3F4
100
AcDbEntity
  8
BEZUGSACHSEN
100
AcDbCircle
 62
7
  6
CONTINUOUS
 10
280.2190292382
 20
329.8037052085
 40
29.63974601
100
AcDbArc
 50
268.0941425404
 51
271.7436964987
  0
CIRCLE
  5
3F5
100
AcDbEntity
  8
BEZUGSACHSEN
100
AcDbCircle
 62
7
  6
CONTINUOUS
 10
280.2191037284
 20
270.5033829294
 40
4.5
  0
CIRCLE
  5
3F6
100
AcDbEntity
  8
BEZUGSACHSEN
100
AcDbCircle
 62
7
  6
CONTINUOUS
 10
255.3691037284
 20
256.5033829294
 40
4.0
  0
ARC
  5
3F7
100
AcDbEntity
  8
RUNDUNGEN
100
AcDbCircle
 62
7
  6
CONTINUOUS
 10
328.3691037284
 20
245.5033829294
 40
1.0
100
AcDbArc
 50
270.0
 51
360.0
  0
ARC
  5
3F8
100
AcDbEntity
  8
RUNDUNGEN
100
AcDbCircle
 62
7
  6
CONTINUOUS
 10
328.3691037284
 20
295.5033829294
 40
1.0
100
AcDbArc
 50
0.0
 51
90.0
  0
ARC
  5
3F9
100
AcDbEntity
  8
RUNDUNGEN
100
AcDbCircle
 62
7
  6
CONTINUOUS
 10
335.1691037284
 20
279.3033829294
 40
0.8
100
AcDbArc
 50
180.0
 51
270.0
  0
ARC
  5
3FA
100
AcDbEntity
  8
RUNDUNGEN
100
AcDbCircle
 62
7
  6
CONTINUOUS
 10
335.1691037284
 20
261.7033829294
 40
0.8
100
AcDbArc
 50
90.0
 51
180.0
  0
ARC
  5
3FB
100
AcDbEntity
  8
0
100
AcDbCircle
 62
2
  6
CONTINUOUS
 10
65.1150020577
 20
270.5033829294
 40
2.5
100
AcDbArc
 50
255.0
 51
195.0
  0
CIRCLE
  5
3FC
100
AcDbEntity
  8
BEZUGSACHSEN
100
AcDbCircle
 62
7
  6
CONTINUOUS
 10
65.1150020577
 20
270.5033829294
 40
2.1
  0
ARC
  5
3FD
100
AcDbEntity
  8
0
100
AcDbCircle
 62
2
  6
CONTINUOUS
 10
96.1150020577
 20
239.5033829294
 40
2.5
100
AcDbArc
 50
255.0
 51
195.0
  0
CIRCLE
  5
3FE
100
AcDbEntity
  8
BEZUGSACHSEN
100
AcDbCircle
 62
7
  6
CONTINUOUS
 10
96.1150020577
 20
239.5033829294
 40
2.1
  0
ARC
  5
3FF
100
AcDbEntity
  8
0
100
AcDbCircle
 62
7
  6
CONTINUOUS
 10
96.1150020577
 20
270.5033829294
 40
53.5
100
AcDbArc
 50
131.6116091861
 51
138.3883908139
  0
ARC
  5
400
100
AcDbEntity
  8
0
100
AcDbCircle
 62
7
  6
CONTINUOUS
 10
96.1150020577
 20
270.5033829294
 40
53.5
100
AcDbArc
 50
221.6116091861
 51
228.3883908139
  0
ARC
  5
401
100
AcDbEntity
  8
0
100
AcDbCircle
 62
7
  6
CONTINUOUS
 10
96.1150020577
 20
270.5033829294
 40
53.5
100
AcDbArc
 50
311.6116091861
 51
318.3883908139
  0
ARC
  5
402
100
AcDbEntity
  8
0
100
AcDbCircle
 62
7
  6
CONTINUOUS
 10
96.1150020577
 20
270.5033829294
 40
53.5
100
AcDbArc
 50
41.6116091861
 51
48.3883908139
  0
ARC
  5
403
100
AcDbEntity
  8
0
100
AcDbCircle
 62
7
  6
CONTINUOUS
 10
96.1150020577
 20
270.5033829294
 40
53.45
100
AcDbArc
 50
221.6319711255
 51
228.3680288745
  0
ARC
  5
404
100
AcDbEntity
  8
0
100
AcDbCircle
 62
7
  6
CONTINUOUS
 10
96.1150020577
 20
270.5033829294
 40
53.45
100
AcDbArc
 50
311.6319711255
 51
318.3680288745
  0
ARC
  5
405
100
AcDbEntity
  8
0
100
AcDbCircle
 62
7
  6
CONTINUOUS
 10
96.1150020577
 20
270.5033829294
 40
53.45
100
AcDbArc
 50
41.6319711255
 51
48.3680288745
  0
ARC
  5
406
100
AcDbEntity
  8
0
100
AcDbCircle
 62
7
  6
CONTINUOUS
 10
96.1150020577
 20
270.5033829294
 40
53.45
100
AcDbArc
 50
131.6319711255
 51
138.3680288745
  0
CIRCLE
  5
407
100
AcDbEntity
  8
0
100
AcDbCircle
 62
7
  6
CONTINUOUS
 10
96.1150020577
 20
270.5033829294
 40
35.0
  0
CIRCLE
  5
408
100
AcDbEntity
  8
BLATT2_3D_ANSICHT
100
AcDbCircle
 62
2
  6
CENTER
 10
96.1150020577
 20
270.5033829294
 40
31.0
  0
CIRCLE
  5
409
100
AcDbEntity
  8
RUNDUNGEN
100
AcDbCircle
 62
7
  6
CONTINUOUS
 10
96.1150020577
 20
270.5033829294
 40
26.0
  0
CIRCLE
  5
40A
100
AcDbEntity
  8
RUNDUNGEN
100
AcDbCircle
 62
9
  6
CONTINUOUS
 10
96.1150020577
 20
270.5033829294
 40
25.0
  0
CIRCLE
  5
40B
100
AcDbEntity
  8
0
100
AcDbCircle
 62
7
  6
CONTINUOUS
 10
96.1150020577
 20
270.5033829294
 40
17.0
  0
CIRCLE
  5
40C
100
AcDbEntity
  8
0
100
AcDbCircle
 62
7
  6
CONTINUOUS
 10
96.1150020577
 20
270.5033829294
 40
15.0
  0
ARC
  5
40D
100
AcDbEntity
  8
RUNDUNGEN
100
AcDbCircle
 62
9
  6
CONTINUOUS
 10
96.1150020577
 20
270.5033829294
 40
8.8
100
AcDbArc
 50
106.5151367073
 51
73.4848633247
  0
CIRCLE
  5
40E
100
AcDbEntity
  8
FASEN
100
AcDbCircle
 62
7
  6
CONTINUOUS
 10
96.1150020577
 20
270.5033829294
 40
8.0
  0
CIRCLE
  5
40F
100
AcDbEntity
  8
FASEN
100
AcDbCircle
 62
7
  6
CONTINUOUS
 10
96.1150020577
 20
270.5033829294
 40
7.5
  0
CIRCLE
  5
410
100
AcDbEntity
  8
BOHRUNGEN
100
AcDbCircle
 62
7
  6
CONTINUOUS
 10
96.1150020577
 20
270.5033829294
 40
4.05
  0
CIRCLE
  5
411
100
AcDbEntity
  8
BOHRUNGEN
100
AcDbCircle
 62
7
  6
CONTINUOUS
 10
96.1150020577
 20
270.5033829294
 40
2.65
  0
ARC
  5
412
100
AcDbEntity
  8
0
100
AcDbCircle
 62
2
  6
CONTINUOUS
 10
96.1150020577
 20
270.5033829294
 40
2.5
100
AcDbArc
 50
255.0
 51
195.0
  0
CIRCLE
  5
413
100
AcDbEntity
  8
BOHRUNGEN
100
AcDbCircle
 62
7
  6
CONTINUOUS
 10
96.1150020577
 20
270.5033829294
 40
2.15
  0
CIRCLE
  5
414
100
AcDbEntity
  8
BOHRUNGEN
100
AcDbCircle
 62
7
  6
CONTINUOUS
 10
96.1150020577
 20
270.5033829294
 40
2.1
  0
ARC
  5
415
100
AcDbEntity
  8
0
100
AcDbCircle
 62
2
  6
CONTINUOUS
 10
96.1150020577
 20
301.5033829294
 40
2.5
100
AcDbArc
 50
255.0
 51
195.0
  0
CIRCLE
  5
416
100
AcDbEntity
  8
BEZUGSACHSEN
100
AcDbCircle
 62
7
  6
CONTINUOUS
 10
96.1150020577
 20
301.5033829294
 40
2.1
  0
ARC
  5
417
100
AcDbEntity
  8
0
100
AcDbCircle
 62
2
  6
CONTINUOUS
 10
127.1150020577
 20
270.5033829294
 40
2.5
100
AcDbArc
 50
255.0
 51
195.0
  0
CIRCLE
  5
418
100
AcDbEntity
  8
BEZUGSACHSEN
100
AcDbCircle
 62
7
  6
CONTINUOUS
 10
127.1150020577
 20
270.5033829294
 40
2.1
  0
CIRCLE
  5
419
100
AcDbEntity
  8
BEZUGSACHSEN
100
AcDbCircle
 62
7
  6
CONTINUOUS
 10
482.0448043084
 20
259.0228799584
 40
5.5
  0
CIRCLE
  5
41A
100
AcDbEntity
  8
0
100
AcDbCircle
 62
7
  6
CONTINUOUS
 10
482.0448043084
 20
259.0228799584
 40
5.0
  0
ARC
  5
41B
100
AcDbEntity
  8
0
100
AcDbCircle
 62
2
  6
CONTINUOUS
 10
477.9413851304
 20
238.683577776
 40
3.0
100
AcDbArc
 50
255.0
 51
195.0
  0
CIRCLE
  5
41C
100
AcDbEntity
  8
BEZUGSACHSEN
100
AcDbCircle
 62
7
  6
CONTINUOUS
 10
477.9413851304
 20
238.683577776
 40
2.5
  0
CIRCLE
  5
41D
100
AcDbEntity
  8
BEZUGSACHSEN
100
AcDbCircle
 62
7
  6
CONTINUOUS
 10
498.2806873128
 20
298.2197689047
 40
5.5
  0
CIRCLE
  5
41E
100
AcDbEntity
  8
0
100
AcDbCircle
 62
7
  6
CONTINUOUS
 10
498.2806873128
 20
298.2197689047
 40
5.0
  0
ARC
  5
41F
100
AcDbEntity
  8
0
100
AcDbCircle
 62
2
  6
CONTINUOUS
 10
477.9413851304
 20
302.3231880828
 40
3.0
100
AcDbArc
 50
255.0
 51
195.0
  0
CIRCLE
  5
420
100
AcDbEntity
  8
BEZUGSACHSEN
100
AcDbCircle
 62
7
  6
CONTINUOUS
 10
477.9413851304
 20
302.3231880828
 40
2.5
  0
CIRCLE
  5
421
100
AcDbEntity
  8
BEZUGSACHSEN
100
AcDbCircle
 62
7
  6
CONTINUOUS
 10
521.2416932547
 20
242.7869969541
 40
5.5
  0
CIRCLE
  5
422
100
AcDbEntity
  8
0
100
AcDbCircle
 62
7
  6
CONTINUOUS
 10
521.2416932547
 20
242.7869969541
 40
5.0
  0
ARC
  5
423
100
AcDbEntity
  8
0
100
AcDbCircle
 62
2
  6
CONTINUOUS
 10
541.5809954372
 20
238.683577776
 40
3.0
100
AcDbArc
 50
255.0
 51
195.0
  0
CIRCLE
  5
424
100
AcDbEntity
  8
BEZUGSACHSEN
100
AcDbCircle
 62
7
  6
CONTINUOUS
 10
541.5809954372
 20
238.683577776
 40
2.5
  0
ARC
  5
425
100
AcDbEntity
  8
RUNDUNGEN
100
AcDbCircle
 62
7
  6
CONTINUOUS
 10
521.2611902838
 20
252.7533829294
 40
0.5
100
AcDbArc
 50
270.0
 51
360.0
  0
ARC
  5
426
100
AcDbEntity
  8
0
100
AcDbCircle
 62
7
  6
CONTINUOUS
 10
509.7611902838
 20
270.5033829294
 40
53.5
100
AcDbArc
 50
221.6116091861
 51
228.3883908139
  0
ARC
  5
427
100
AcDbEntity
  8
0
100
AcDbCircle
 62
7
  6
CONTINUOUS
 10
509.7611902838
 20
270.5033829294
 40
53.5
100
AcDbArc
 50
311.6116091861
 51
318.3883908139
  0
ARC
  5
428
100
AcDbEntity
  8
0
100
AcDbCircle
 62
7
  6
CONTINUOUS
 10
509.7611902838
 20
270.5033829294
 40
53.5
100
AcDbArc
 50
41.6116091861
 51
48.3883908139
  0
ARC
  5
429
100
AcDbEntity
  8
0
100
AcDbCircle
 62
7
  6
CONTINUOUS
 10
509.7611902838
 20
270.5033829294
 40
53.5
100
AcDbArc
 50
131.6116091861
 51
138.3883908139
  0
CIRCLE
  5
42A
100
AcDbEntity
  8
BLATT1_ANSICHT_ABTRIEB
100
AcDbCircle
 62
2
  6
CENTER
 10
509.7611902838
 20
270.5033829294
 40
45.0
  0
ARC
  5
42B
100
AcDbEntity
  8
BEZUGSACHSEN
100
AcDbCircle
 62
7
  6
CONTINUOUS
 10
509.7611902838
 20
270.5033829294
 40
35.0
100
AcDbArc
 50
206.5522679444
 51
288.4477320556
  0
ARC
  5
42C
100
AcDbEntity
  8
BEZUGSACHSEN
100
AcDbCircle
 62
7
  6
CONTINUOUS
 10
509.7611902838
 20
270.5033829294
 40
35.0
100
AcDbArc
 50
26.5522679444
 51
108.4477320556
  0
ARC
  5
42D
100
AcDbEntity
  8
BEZUGSACHSEN
100
AcDbCircle
 62
7
  6
CONTINUOUS
 10
509.7611902838
 20
270.5033829294
 40
35.0
100
AcDbArc
 50
296.5522679444
 51
18.4477320556
  0
ARC
  5
42E
100
AcDbEntity
  8
BEZUGSACHSEN
100
AcDbCircle
 62
7
  6
CONTINUOUS
 10
509.7611902838
 20
270.5033829294
 40
35.0
100
AcDbArc
 50
116.5522679444
 51
198.4477320556
  0
CIRCLE
  5
42F
100
AcDbEntity
  8
0
100
AcDbCircle
 62
7
  6
CONTINUOUS
 10
509.7611902838
 20
270.5033829294
 40
23.6
  0
CIRCLE
  5
430
100
AcDbEntity
  8
0
100
AcDbCircle
 62
7
  6
CONTINUOUS
 10
509.7611902838
 20
270.5033829294
 40
23.5
  0
CIRCLE
  5
431
100
AcDbEntity
  8
0
100
AcDbCircle
 62
9
  6
CONTINUOUS
 10
509.7611902838
 20
270.5033829294
 40
22.5
  0
ARC
  5
432
100
AcDbEntity
  8
0
100
AcDbCircle
 62
7
  6
CONTINUOUS
 10
509.7611902838
 20
270.5033829294
 40
20.0
100
AcDbArc
 50
272.1490956269
 51
267.8509043731
  0
ARC
  5
433
100
AcDbEntity
  8
0
100
AcDbCircle
 62
7
  6
CONTINUOUS
 10
509.7611902838
 20
270.5033829294
 40
14.0
100
AcDbArc
 50
266.9291131889
 51
273.0708868111
  0
CIRCLE
  5
434
100
AcDbEntity
  8
0
100
AcDbCircle
 62
7
  6
CONTINUOUS
 10
509.7611902838
 20
270.5033829294
 40
9.5
  0
CIRCLE
  5
435
100
AcDbEntity
  8
BEZUGSACHSEN
100
AcDbCircle
 62
7
  6
CONTINUOUS
 10
537.4775762591
 20
281.9838859003
 40
5.5
  0
CIRCLE
  5
436
100
AcDbEntity
  8
0
100
AcDbCircle
 62
7
  6
CONTINUOUS
 10
537.4775762591
 20
281.9838859003
 40
5.0
  0
ARC
  5
437
100
AcDbEntity
  8
0
100
AcDbCircle
 62
2
  6
CONTINUOUS
 10
541.5809954372
 20
302.3231880828
 40
3.0
100
AcDbArc
 50
255.0
 51
195.0
  0
CIRCLE
  5
438
100
AcDbEntity
  8
BEZUGSACHSEN
100
AcDbCircle
 62
7
  6
CONTINUOUS
 10
541.5809954372
 20
302.3231880828
 40
2.5
  0
SPLINE
  5
439
100
AcDbEntity
  8
BEZUGSACHSEN
100
AcDbSpline
 62
7
  6
CONTINUOUS
 70
0
 71
3
 72
22
 73
18
 74
0
 42
0.0000001
 43
0.0000001
 44
0.0000000001
 40
0.0
 40
0.0
 40
0.0
 40
0.0
 40
0.0012630048
 40
0.0050366533
 40
0.0112980879
 40
0.0200244864
 40
0.0311925963
 40
0.0447632282
 40
0.0788764988
 40
0.1218884809
 40
0.1732616435
 40
0.2323779778
 40
0.2986105143
 40
0.449776806
 40
0.6212253708
 40
0.8069322095
 40
1.0
 40
1.0
 40
1.0
 40
1.0
 10
335.3691037453
 20
278.5033829141
 30
0.0
 10
335.3696412675
 20
278.5043080805
 30
0.0
 10
335.3748851343
 20
278.500000157
 30
0.0
 10
335.3828925076
 20
278.5000626837
 30
0.0
 10
335.3987143894
 20
278.4937025923
 30
0.0
 10
335.4196118496
 20
278.4879132507
 30
0.0
 10
335.4468345418
 20
278.4793525094
 30
0.0
 10
335.4945073629
 20
278.4650536683
 30
0.0
 10
335.5682302819
 20
278.4432067638
 30
0.0
 10
335.6729247663
 20
278.4134576185
 30
0.0
 10
335.7984414737
 20
278.3794036164
 30
0.0
 10
335.9435196228
 20
278.3424174319
 30
0.0
 10
336.1714927939
 20
278.2884781387
 30
0.0
 10
336.494391981
 20
278.2226745524
 30
0.0
 10
336.9202586413
 20
278.1573849905
 30
0.0
 10
337.3845583684
 20
278.1131213293
 30
0.0
 10
337.7055420408
 20
278.1027250062
 30
0.0
 10
337.8691037284
 20
278.1027250062
 30
0.0
  0
SPLINE
  5
43A
100
AcDbEntity
  8
BEZUGSACHSEN
100
AcDbSpline
 62
7
  6
CONTINUOUS
 70
0
 71
3
 72
22
 73
18
 74
0
 42
0.0000001
 43
0.0000001
 44
0.0000000001
 40
0.0
 40
0.0
 40
0.0
 40
0.0
 40
0.1930676714
 40
0.3787753981
 40
0.5502256964
 40
0.7013925077
 40
0.7676246211
 40
0.8267405634
 40
0.8781134132
 40
0.9211252099
 40
0.9552381896
 40
0.9688087405
 40
0.979976799
 40
0.9887029029
 40
0.9949639148
 40
0.9987371779
 40
1.0
 40
1.0
 40
1.0
 40
1.0
 10
357.8691037284
 20
278.1027250062
 30
0.0
 10
358.0326653162
 20
278.1027250062
 30
0.0
 10
358.353649648
 20
278.1131211672
 30
0.0
 10
358.8179514761
 20
278.1573853606
 30
0.0
 10
359.243820692
 20
278.2226756262
 30
0.0
 10
359.566721482
 20
278.2884794611
 30
0.0
 10
359.7946942253
 20
278.3424190033
 30
0.0
 10
359.9397716526
 20
278.3794052701
 30
0.0
 10
360.0652869053
 20
278.4134585252
 30
0.0
 10
360.1699828273
 20
278.4432090532
 30
0.0
 10
360.2437003405
 20
278.4650524162
 30
0.0
 10
360.2913805891
 20
278.4793561262
 30
0.0
 10
360.3185863254
 20
278.4879065881
 30
0.0
 10
360.3395261133
 20
278.4937229077
 30
0.0
 10
360.3552494239
 20
278.5000205442
 30
0.0
 10
360.3634283579
 20
278.5000670996
 30
0.0
 10
360.3684926735
 20
278.5042610767
 30
0.0
 10
360.3691037262
 20
278.5033829273
 30
0.0
  0
ENDSEC
  0
SECTION
  2
OBJECTS
  0
DICTIONARY
  5
C
100
AcDbDictionary
280
0
281
1
  3
ACAD_GROUP
350
D
  3
ACAD_MLINESTYLE
350
17
  3
ACAD_LAYOUT
350
1A
  3
ACAD_PLOTSETTINGS
350
19
  3
ACAD_PLOTSTYLENAME
350
E
  0
DICTIONARY
  5
D
102
{ACAD_REACTORS
330
C
102
}
100
AcDbDictionary
280
0
281
1
  0
ACDBDICTIONARYWDFLT
  5
E
102
{ACAD_REACTORS
330
C
102
}
100
AcDbDictionary
281
1
  3
Normal
350
F
100
AcDbDictionaryWithDefault
340
F
  0
DICTIONARY
  5
17
102
{ACAD_REACTORS
330
C
102
}
100
AcDbDictionary
280
0
281
1
  3
Standard
350
18
  0
DICTIONARY
  5
19
102
{ACAD_REACTORS
330
C
102
}
100
AcDbDictionary
281
1
  0
DICTIONARY
  5
1A
102
{ACAD_REACTORS
330
C
102
}
100
AcDbDictionary
281
1
  3
Model
350
43B
  3
Layout1
350
43C
  0
ACDBPLACEHOLDER
  5
F
102
{ACAD_REACTORS
330
E
102
}
  0
MLINESTYLE
  5
18
102
{ACAD_REACTORS
330
17
102
}
100
AcDbMlineStyle
  2
STANDARD
 70
0
  3

 62
256
 51
90.0
 52
90.0
 71
2
 49
0.5
 62
256
  6
BYLAYER
 49
-0.5
 62
256
  6
BYLAYER
  0
LAYOUT
  5
43B
102
{ACAD_REACTORS
330
1A
102
}
100
AcDbPlotSettings
  1

  2
none_device
  4
ISO_A3_(420.00_x_297.00_MM)
  6

 40
0.0
 41
0.0
 42
0.0
 43
0.0
 44
420.0
 45
297.0
 46
0.0
 47
0.0
 48
0.0
 49
0.0
140
0.0
141
0.0
142
1.0
143
1.0
 70
1024
 72
1
 73
0
 74
0
  7

 75
0
147
1.0
148
0.0
149
0.0
100
AcDbLayout
  1
Model
 70
0
 71
0
 10
0.0
 20
0.0
 11
420.0
 21
297.0
 12
0.0
 22
0.0
 32
0.0
 14
0.0
 24
0.0
 34
0.0
 15
0.0
 25
0.0
 35
0.0
146
0.0
 13
0.0
 23
0.0
 33
0.0
 16
1.0
 26
0.0
 36
0.0
 17
0.0
 27
1.0
 37
0.0
 76
0
330
210
345
0
346
0
  0
LAYOUT
  5
43C
102
{ACAD_REACTORS
330
1A
102
}
100
AcDbPlotSettings
  1

  2
none_device
  4
ISO_A3_(420.00_x_297.00_MM)
  6

 40
0.0
 41
0.0
 42
0.0
 43
0.0
 44
420.0
 45
297.0
 46
0.0
 47
0.0
 48
0.0
 49
0.0
140
0.0
141
0.0
142
1.0
143
1.0
 70
0
 72
1
 73
0
 74
0
  7

 75
0
147
1.0
148
0.0
149
0.0
100
AcDbLayout
  1
Layout1
 70
0
 71
1
 10
0.0
 20
0.0
 11
420.0
 21
297.0
 12
0.0
 22
0.0
 32
0.0
 14
0.0
 24
0.0
 34
0.0
 15
0.0
 25
0.0
 35
0.0
146
0.0
 13
0.0
 23
0.0
 33
0.0
 16
1.0
 26
0.0
 36
0.0
 17
0.0
 27
1.0
 37
0.0
 76
0
330
211
345
0
346
0
  0
ENDSEC
  0
EOF
